<?xml version="1.0" standalone="no"?>
<!DOCTYPE svg PUBLIC "-//W3C//DTD SVG 1.1//EN" "http://www.w3.org/Graphics/SVG/1.1/DTD/svg11.dtd" >
<svg xmlns="http://www.w3.org/2000/svg" xmlns:xlink="http://www.w3.org/1999/xlink" version="1.1">
<metadata>
Created by FontForge 20200314 at Wed Jan 13 11:59:38 2021
 By Robert Madole
Copyright (c) Font Awesome
</metadata>
<!-- Font Awesome Pro 5.15.2 by @fontawesome - https://fontawesome.com License - https://fontawesome.com/license (Commercial License) --><defs>
<font id="FontAwesome5Pro-Solid" horiz-adv-x="512" >
  <font-face 
    font-family="Font Awesome 5 Pro Solid"
    font-weight="900"
    font-stretch="normal"
    units-per-em="512"
    panose-1="2 0 5 3 0 0 0 0 0 0"
    ascent="448"
    descent="-64"
    bbox="-0.00488281 -64.0098 640.009 448.009"
    underline-thickness="25"
    underline-position="-50"
    unicode-range="U+0020-F8FF"
  />
    <missing-glyph />
    <glyph glyph-name="volume-down" unicode="&#xf027;" horiz-adv-x="384" 
d="M215.03 375.96c15.0098 15 40.9697 4.49023 40.9697 -16.9795v-335.961c0 -21.4395 -25.9404 -32 -40.9697 -16.9697l-88.9707 88.9502h-102.06c-13.2598 0 -24 10.75 -24 24v144c0 13.2598 10.7402 24 24 24h102.06zM338.23 267.88
c28.2393 -15.5498 45.7793 -44.9902 45.7793 -76.8701s-17.54 -61.3301 -45.7695 -76.8799c-11.5605 -6.34961 -26.1807 -2.20996 -32.6104 9.4502c-6.38965 11.6104 -2.16016 26.2002 9.4502 32.6104c12.9004 7.08984 20.9199 20.4297 20.9199 34.8096
s-8.01953 27.7197 -20.9297 34.8203c-11.6104 6.41016 -15.8398 21 -9.4502 32.6094c6.41992 11.6104 21.0303 15.7803 32.6104 9.4502z" />
    <glyph glyph-name="volume-up" unicode="&#xf028;" horiz-adv-x="576" 
d="M215.03 376.95c15.0098 15.0098 40.9697 4.49023 40.9697 -16.9697v-335.961c0 -21.4395 -25.9404 -32 -40.9697 -16.9697l-88.9707 88.9502h-102.06c-13.2598 0 -24 10.75 -24 24v144c0 13.2598 10.7402 24 24 24h102.06zM448.35 428.03
c79.9199 -52.46 127.65 -140.7 127.65 -236.03s-47.7305 -183.58 -127.65 -236.04c-11.5801 -7.61035 -26.4697 -3.75977 -33.5098 6.9502c-7.33984 11.1602 -4.21973 26.1797 6.9502 33.5c66.2695 43.4902 105.82 116.6 105.82 195.58
c0 78.9795 -39.5508 152.09 -105.82 195.58c-11.1699 7.33008 -14.29 22.3398 -6.9502 33.5098c7.33008 11.1895 22.3398 14.2803 33.5098 6.9502zM480 192c0 -63.54 -32.0596 -121.94 -85.7695 -156.24c-12 -7.67969 -26.6104 -2.89941 -33.1201 7.45996
c-7.09082 11.29 -3.78027 26.2207 7.40918 33.3604c39.75 25.3896 63.4805 68.5303 63.4805 115.42s-23.7305 90.0303 -63.4805 115.42c-11.1895 7.15039 -14.5 22.0801 -7.40918 33.3604c7.08984 11.2793 21.9297 14.5996 33.1201 7.45996
c53.71 -34.2998 85.7695 -92.71 85.7695 -156.24zM338.23 268.87c28.2393 -15.54 45.7793 -44.9805 45.7793 -76.8604s-17.54 -61.3301 -45.7695 -76.8799c-11.5605 -6.34961 -26.1807 -2.20996 -32.6104 9.4502c-6.38965 11.6104 -2.16016 26.2002 9.4502 32.6104
c12.9004 7.08984 20.9199 20.4297 20.9199 34.8096c0 14.3701 -8.01953 27.7197 -20.9297 34.8096c-11.6104 6.41016 -15.8398 21 -9.4502 32.6104c6.41992 11.6104 21.0303 15.7803 32.6104 9.4502z" />
    <glyph glyph-name="chart-bar" unicode="&#xf080;" 
d="M332.8 128c-6.39941 0 -12.7998 6.40039 -12.7998 12.7998v134.4c0 6.39941 6.40039 12.7998 12.7998 12.7998h38.4004c6.39941 0 12.7998 -6.40039 12.7998 -12.7998v-134.4c0 -6.39941 -6.40039 -12.7998 -12.7998 -12.7998h-38.4004zM428.8 128
c-6.39941 0 -12.7998 6.40039 -12.7998 12.7998v230.4c0 6.39941 6.40039 12.7998 12.7998 12.7998h38.4004c6.39941 0 12.7998 -6.40039 12.7998 -12.7998v-230.4c0 -6.39941 -6.40039 -12.7998 -12.7998 -12.7998h-38.4004zM140.8 128
c-6.39941 0 -12.7998 6.40039 -12.7998 12.7998v70.4004c0 6.39941 6.40039 12.7998 12.7998 12.7998h38.4004c6.39941 0 12.7998 -6.40039 12.7998 -12.7998v-70.4004c0 -6.39941 -6.40039 -12.7998 -12.7998 -12.7998h-38.4004zM236.8 128
c-6.39941 0 -12.7998 6.40039 -12.7998 12.7998v198.4c0 6.39941 6.40039 12.7998 12.7998 12.7998h38.4004c6.39941 0 12.7998 -6.40039 12.7998 -12.7998v-198.4c0 -6.39941 -6.40039 -12.7998 -12.7998 -12.7998h-38.4004zM496 64c8.83984 0 16 -7.16016 16 -16v-32
c0 -8.83984 -7.16016 -16 -16 -16h-464c-17.6699 0 -32 14.3301 -32 32v336c0 8.83984 7.16016 16 16 16h32c8.83984 0 16 -7.16016 16 -16v-304h432z" />
    <glyph glyph-name="bullhorn" unicode="&#xf0a1;" horiz-adv-x="576" 
d="M576 208c0 -23.6299 -12.9502 -44.04 -32.0098 -55.1299v-152.87c0 -9.21973 -7.08008 -32 -32 -32c-7.5459 0.00683594 -14.5078 2.64062 -19.9805 7.01953l-85.0293 68.0303c-42.7002 34.1406 -96.3203 52.9502 -150.98 52.9502h-28.0801
c-2.79004 -10.21 -4.41016 -20.8896 -4.41016 -32c0 -29.0801 9.75 -55.9199 26.1504 -77.4404c15.79 -20.7197 0.149414 -50.5596 -25.9004 -50.5596h-74.2793c-11.8809 0 -23.2109 6.37012 -28.4004 17.0596c-16.2998 33.5908 -25.5605 71.1709 -25.5605 110.94
c0 10.8604 0.790039 21.5195 2.18066 32h-33.7002c-35.3496 0 -64 28.6504 -64 64v96c0 35.3496 28.6504 64 64 64h192c54.6602 0 108.28 18.8096 150.99 52.9502l85.0293 68.0303c5.79004 4.63965 12.8604 7.01953 19.9805 7.01953c25.0195 0 32 -23.2598 32 -32.0098
v-152.87c19.0498 -11.0801 32 -31.4902 32 -55.1201zM480 66.5801v282.84l-33.0498 -26.4395c-54 -43.2002 -121.83 -66.9805 -190.95 -66.9805v-96c69.1201 0 136.95 -23.7803 190.95 -66.9805z" />
    <glyph glyph-name="briefcase" unicode="&#xf0b1;" 
d="M320 112v48h192v-144c0 -25.5996 -22.4004 -48 -48 -48h-416c-25.5996 0 -48 22.4004 -48 48v144h192v-48c0 -8.83984 7.16016 -16 16 -16h96c8.83984 0 16 7.16016 16 16zM464 320c25.5996 0 48 -22.4004 48 -48v-80h-512v80c0 25.5996 22.4004 48 48 48h80v48
c0 25.5996 22.4004 48 48 48h160c25.5996 0 48 -22.4004 48 -48v-48h80zM320 320v32h-128v-32h128z" />
    <glyph glyph-name="lightbulb" unicode="&#xf0eb;" horiz-adv-x="352" 
d="M96.0596 -6.34961l-0.0498047 38.3496h159.98l-0.0400391 -38.3496c-0.0078125 -6.52637 -1.99219 -12.6309 -5.36035 -17.6904l-17.0898 -25.6904c-5.73242 -8.62305 -15.5176 -14.2793 -26.6396 -14.2793h-61.71c-11.123 0 -20.9072 5.65625 -26.6406 14.2793
l-17.0898 25.6904c-3.49023 5.24023 -5.34961 11.4004 -5.36035 17.6904zM0 272c0 93.0303 73.4404 175.69 175.45 176c97.46 0.299805 176.55 -78.6104 176.55 -176c0 -44.3701 -16.4502 -84.8496 -43.5596 -115.78c-16.5205 -18.8496 -42.3604 -58.2295 -52.21 -91.4502
c-0.0400391 -0.269531 -0.0703125 -0.519531 -0.110352 -0.779297h-160.24c-0.0400391 0.259766 -0.0703125 0.519531 -0.110352 0.779297c-9.84961 33.2207 -35.6895 72.6006 -52.21 91.4502c-27.1094 30.9307 -43.5596 71.4102 -43.5596 115.78zM176 352
c8.83984 0 16 7.16016 16 16s-7.16016 16 -16 16c-61.7598 0 -112 -50.2402 -112 -112c0 -8.83984 7.16016 -16 16 -16s16 7.16016 16 16c0 44.1104 35.8896 80 80 80z" />
    <glyph glyph-name="chart-pie" unicode="&#xf200;" horiz-adv-x="544" 
d="M527.79 160c9.5498 0 17.4004 -8.38965 16.0596 -17.8496c-7.80957 -55.25 -34.4297 -104.4 -73.1299 -140.86c-6.20996 -5.84961 -16.1494 -5.36035 -22.1895 0.679688l-158.03 158.03h237.29zM511.96 224.8c0.629883 -9.12012 -7.0498 -16.7998 -16.1904 -16.7998
h-223.77v223.76c0 9.14062 7.67969 16.8301 16.7998 16.2002c119.46 -8.24023 214.92 -103.7 223.16 -223.16zM224 160l155.86 -155.87c6.84961 -6.84961 6.33008 -18.4795 -1.57031 -24.0801c-38.29 -27.1602 -84.8604 -43.3994 -135.26 -44.0303
c-128.2 -1.60938 -238.53 103.471 -242.891 231.61c-4.23926 124.771 86.8506 228.88 206.021 245.72c9.4502 1.34082 17.8398 -6.50977 17.8398 -16.0596v-237.29z" />
    <glyph glyph-name="chart-line" unicode="&#xf201;" 
d="M496 64c8.83984 0 16 -7.16016 16 -16v-32c0 -8.83984 -7.16016 -16 -16 -16h-464c-17.6699 0 -32 14.3301 -32 32v336c0 8.83984 7.16016 16 16 16h32c8.83984 0 16 -7.16016 16 -16v-304h432zM464 352c8.83984 0 16 -7.16016 15.9902 -16v-118.05
c0 -21.3799 -25.8506 -32.0898 -40.9707 -16.9697l-32.3994 32.3994l-96 -96c-12.4902 -12.5 -32.75 -12.5 -45.25 0l-73.3701 73.3701l-46.0596 -46.0703c-6.25 -6.25 -16.3809 -6.25 -22.6309 0l-22.6191 22.6201c-6.25 6.25 -6.25 16.3799 0 22.6299l68.6895 68.6904
c12.4902 12.5 32.75 12.5 45.25 0l73.3701 -73.3701l73.3701 73.3799l-32.4004 32.4004c-15.1201 15.1201 -4.41016 40.9697 16.9707 40.9697h118.06z" />
    <glyph glyph-name="volume-slash" unicode="&#xf2e2;" horiz-adv-x="640" 
d="M633.82 -10.0996c6.97949 -5.43066 8.22949 -15.4805 2.81934 -22.4502l-19.6396 -25.2705c-5.42969 -6.97949 -15.4805 -8.23926 -22.46 -2.80957l-588.36 454.729c-6.97949 5.43066 -8.22949 15.4805 -2.80957 22.4502l19.6396 25.2705
c5.41992 6.97949 15.4805 8.22949 22.46 2.80957l151.851 -117.38l49.71 49.7002c15.0098 15.0098 40.9697 4.49023 40.9697 -16.9697v-102.801l79.4697 -61.4199c-1.2793 12.8799 -8.63965 24.6006 -20.3994 31.0605c-11.6104 6.41016 -15.8398 21 -9.4502 32.6094
c6.41992 11.6104 21.0303 15.7803 32.6104 9.4502c28.2393 -15.5498 45.7695 -45 45.7695 -76.8799c0 -10.2305 -2.37988 -19.9502 -5.75977 -29.2998l39.5596 -30.5801c9.16992 18.3096 14.2002 38.6699 14.2002 59.8799c0 46.5596 -23.7305 90.4102 -63.4805 115.62
c-11.1895 7.09961 -14.5 21.9297 -7.40918 33.1299c7.08984 11.21 21.9297 14.5 33.1201 7.41016c53.71 -34.0703 85.7695 -93.0703 85.7695 -156.16c0 -32.0596 -8.50977 -62.6797 -23.7305 -89.6104l38.1201 -29.46c21.2607 35.4707 33.2207 76.2803 33.2207 119.061
c0 78.9795 -39.5508 152.09 -105.82 195.58c-11.1699 7.33008 -14.29 22.3398 -6.9502 33.5098c7.33008 11.1895 22.3398 14.2803 33.5098 6.9502c79.9199 -52.4502 127.65 -140.7 127.65 -236.03c0 -53.6797 -15.5801 -104.8 -43.1797 -148.77zM32 264
c0 8.67969 4.86035 15.9502 11.7598 20.1602l244.24 -188.76v-71.3809c0 -21.4395 -25.9404 -32 -40.9697 -16.9697l-88.9707 88.9502h-102.06c-13.2598 0 -24 10.75 -24 24v144z" />
    <glyph glyph-name="route-highway" unicode="&#xf61a;" horiz-adv-x="448" 
d="M428.4 178.79c37.9395 -56.5205 18.5498 -139.43 -38.8105 -166.03l-165.62 -76.7598l-165.56 76.75c-57.3604 26.5996 -76.75 109.51 -38.8105 166.03c30.4707 45.4297 11.8008 104.479 -13 155.399c-3.95996 8.14062 -3.33984 17.75 1.87012 25.1299l41.1807 58.3701
c5 7.08984 15.6699 13.1299 27.4893 8.61035c15.3604 -5.87988 32.6602 -8.88965 50.25 -8.88965c29.5107 0 59.8203 8.46973 83.1699 26.1094c3.95996 2.99023 8.7002 4.49023 13.4404 4.49023s9.48047 -1.5 13.4404 -4.49023
c23.3496 -17.6396 53.6494 -26.1094 83.1592 -26.1094c17.5908 0 34.8906 3.00977 50.2607 8.88965c11.7295 4.49023 22.4297 -1.42969 27.4893 -8.61035l41.1807 -58.3594c5.20996 -7.37988 5.83008 -17 1.87012 -25.1299c-24.8008 -50.9307 -43.4805 -109.98 -13 -155.4z
M362.68 70.8301c19.6201 9.08984 29.8008 46.6299 12.5703 72.29c-24.7305 36.8604 -29.2002 76.75 -25.2197 112.88h-252.07c3.98047 -36.1299 -0.490234 -76.0098 -25.2197 -112.87c-17.1104 -25.5 -7.19043 -63.1299 12.5898 -72.2998l138.65 -64.29z" />
    <glyph glyph-name="abacus" unicode="&#xf640;" horiz-adv-x="576" 
d="M32 448c17.6699 0 32 -14.3301 32 -32v-464c0 -8.83984 -7.16016 -16 -16 -16h-32c-8.83984 0 -16 7.16016 -16 16v464c0 17.6699 14.3301 32 32 32zM544 448c17.6699 0 32 -14.3301 32 -32v-464c0 -8.83984 -7.16016 -16 -16 -16h-32c-8.83984 0 -16 7.16016 -16 16v464
c0 17.6699 14.3301 32 32 32zM464 416c8.83984 0 16 -7.16016 16 -16v-96c0 -8.83984 -7.16016 -16 -16 -16h-32c-8.83984 0 -16 7.16016 -16 16v24h-160v-24c0 -8.83984 -7.16016 -16 -16 -16h-32c-8.83984 0 -16 7.16016 -16 16v24h-32v-24
c0 -8.83984 -7.16016 -16 -16 -16h-32c-8.83984 0 -16 7.16016 -16 16v96c0 8.83984 7.16016 16 16 16h32c8.83984 0 16 -7.16016 16 -16v-24h32v24c0 8.83984 7.16016 16 16 16h32c8.83984 0 16 -7.16016 16 -16v-24h160v24c0 8.83984 7.16016 16 16 16h32zM352 240v-24
h128v-48h-128v-24c0 -8.83984 -7.16016 -16 -16 -16h-32c-8.83984 0 -16 7.16016 -16 16v24h-32v-24c0 -8.83984 -7.16016 -16 -16 -16h-32c-8.83984 0 -16 7.16016 -16 16v24h-32v-24c0 -8.83984 -7.16016 -16 -16 -16h-32c-8.83984 0 -16 7.16016 -16 16v96
c0 8.83984 7.16016 16 16 16h32c8.83984 0 16 -7.16016 16 -16v-24h32v24c0 8.83984 7.16016 16 16 16h32c8.83984 0 16 -7.16016 16 -16v-24h32v24c0 8.83984 7.16016 16 16 16h32c8.83984 0 16 -7.16016 16 -16zM464 96c8.83984 0 16 -7.16016 16 -16v-96
c0 -8.83984 -7.16016 -16 -16 -16h-32c-8.83984 0 -16 7.16016 -16 16v24h-160v-24c0 -8.83984 -7.16016 -16 -16 -16h-32c-8.83984 0 -16 7.16016 -16 16v24h-32v-24c0 -8.83984 -7.16016 -16 -16 -16h-32c-8.83984 0 -16 7.16016 -16 16v96c0 8.83984 7.16016 16 16 16h32
c8.83984 0 16 -7.16016 16 -16v-24h32v24c0 8.83984 7.16016 16 16 16h32c8.83984 0 16 -7.16016 16 -16v-24h160v24c0 8.83984 7.16016 16 16 16h32z" />
    <glyph glyph-name="analytics" unicode="&#xf643;" horiz-adv-x="576" 
d="M510.62 355.37l-95.3203 -76.2803c0.339844 -2.33008 0.709961 -4.66016 0.709961 -7.08984c0 -26.5098 -21.4902 -48 -48 -48s-48 21.4902 -48 48c0 2.42969 0.360352 4.76953 0.709961 7.09961l-95.3398 76.2705
c-5.41016 -2.11035 -11.2295 -3.37012 -17.3799 -3.37012c-4.26953 0 -8.33984 0.740234 -12.2803 1.78027l-101.5 -101.5c1.04004 -3.94043 1.78027 -8.01074 1.78027 -12.2803c0 -26.5098 -21.4902 -48 -48 -48s-48 21.4902 -48 48s21.4902 48 48 48
c4.26953 0 8.33984 -0.740234 12.2803 -1.78027l101.5 101.5c-1.04004 3.94043 -1.78027 8.01074 -1.78027 12.2803c0 26.5098 21.4902 48 48 48s48 -21.4902 48 -48c0 -2.42969 -0.360352 -4.76953 -0.709961 -7.09961l95.3203 -76.2607
c5.40918 2.11035 11.2295 3.37012 17.3799 3.37012c6.14941 0 11.9795 -1.25977 17.3799 -3.37012l95.3398 76.2705c-0.339844 2.33008 -0.709961 4.66016 -0.709961 7.08984c0 26.5098 21.4902 48 48 48s48 -21.4902 48 -48s-21.4902 -48 -48 -48
c-6.15039 0 -11.9697 1.25977 -17.3799 3.37012zM400 128c8.83984 0 16 -7.16016 16 -16v-160c0 -8.83984 -7.16016 -16 -16 -16h-64c-8.83984 0 -16 7.16016 -16 16v160c0 8.83984 7.16016 16 16 16h64zM560 256c8.83984 0 16 -7.16016 16 -16v-288
c0 -8.83984 -7.16016 -16 -16 -16h-64c-8.83984 0 -16 7.16016 -16 16v288c0 8.83984 7.16016 16 16 16h64zM240 256c8.83984 0 16 -7.16016 16 -16v-288c0 -8.83984 -7.16016 -16 -16 -16h-64c-8.83984 0 -16 7.16016 -16 16v288c0 8.83984 7.16016 16 16 16h64zM80 96
c8.83984 0 16 -7.16016 16 -16v-128c0 -8.83984 -7.16016 -16 -16 -16h-64c-8.83984 0 -16 7.16016 -16 16v128c0 8.83984 7.16016 16 16 16h64z" />
    <glyph glyph-name="ankh" unicode="&#xf644;" horiz-adv-x="320" 
d="M296 192c13.25 0 24 -10.7402 24 -24v-32c0 -13.25 -10.75 -24 -24 -24h-96v-152c0 -13.25 -10.75 -24 -24 -24h-32c-13.25 0 -24 10.75 -24 24v152h-96c-13.25 0 -24 10.75 -24 24v32c0 13.2598 10.75 24 24 24h44.6201c-21.0801 33.9902 -36.6201 74.3496 -36.6201 112
c0 88.3701 57.3096 144 128 144s128 -55.6299 128 -144c0 -37.6504 -15.54 -78.0098 -36.6201 -112h44.6201zM160 368c-29.6104 0 -48 -24.5195 -48 -64c0 -34.6602 27.1396 -78.1504 48 -100.87c20.8604 22.7305 48 66.21 48 100.87c0 39.4805 -18.3896 64 -48 64z" />
    <glyph glyph-name="badge-dollar" unicode="&#xf645;" 
d="M512 192c0 -37.7002 -23.7002 -69.9004 -57.0996 -82.4004c14.6992 -32.3994 8.7998 -71.8994 -17.9004 -98.5996c-26.5996 -26.5996 -66 -32.7002 -98.5996 -17.9004c-12.5 -33.3994 -44.7002 -57.0996 -82.4004 -57.0996s-69.9004 23.7998 -82.4004 57.0996
c-32.5 -14.7998 -72 -8.69922 -98.5996 17.9004c-26.7002 26.5996 -32.5996 66.2002 -17.9004 98.5996c-33.3994 12.5 -57.0996 44.7002 -57.0996 82.4004s23.7002 69.9004 57.0996 82.4004c-14.6992 32.3994 -8.7998 71.8994 17.9004 98.5996
c26.5996 26.7002 66.2002 32.5996 98.5996 17.9004c12.5 33.3994 44.7002 57.0996 82.4004 57.0996s69.9004 -23.7002 82.4004 -57.0996c32.3994 14.6992 71.8994 8.7998 98.5996 -17.9004s32.5996 -66.2002 17.9004 -98.5996
c33.3994 -12.5 57.0996 -44.7002 57.0996 -82.4004zM280 97.5596c30.29 3.62012 53.3701 30.9805 49.3203 63.04c-2.90039 22.96 -20.6602 41.3105 -42.9102 47.6699l-50.0703 14.3008c-3.59961 1.0293 -6.12012 4.35938 -6.12012 8.10938
c0 4.64062 3.78027 8.41992 8.44043 8.41992h32.7803c0.0214844 0 0.0634766 -0.0126953 0.0859375 -0.0126953c3.62891 0 7.07422 -0.790039 10.1738 -2.20703c4.7998 -2.20996 10.3701 -1.70996 14.1094 2.03027l17.5205 17.5195
c5.26953 5.27051 4.66992 14.2705 -1.5498 18.3799c-9.5 6.27051 -20.3604 10.1104 -31.7803 11.46v17.7305c0 8.83984 -7.16016 16 -16 16h-16c-8.83984 0 -16 -7.16016 -16 -16v-17.5498c-30.29 -3.62012 -53.3701 -30.9805 -49.3203 -63.0498
c2.90039 -22.96 20.6602 -41.3203 42.9102 -47.6699l50.0703 -14.3008c3.59961 -1.0293 6.12012 -4.35938 6.12012 -8.10938c0 -4.64062 -3.78027 -8.41992 -8.44043 -8.41992h-32.7803c-3.59961 0 -7.0791 0.759766 -10.2598 2.21973
c-4.7998 2.20996 -10.3701 1.70996 -14.1094 -2.03027l-17.5205 -17.5195c-5.26953 -5.27051 -4.66992 -14.2705 1.5498 -18.3799c9.5 -6.27051 20.3604 -10.1104 31.7803 -11.46v-17.7305c0 -8.83984 7.16016 -16 16 -16h16c8.83984 0 16 7.16016 16 16v17.5596z" />
    <glyph glyph-name="badge-percent" unicode="&#xf646;" 
d="M512 192c0 -37.7002 -23.7002 -69.9004 -57.0996 -82.4004c14.6992 -32.3994 8.7998 -71.8994 -17.9004 -98.5996c-26.5996 -26.5996 -66 -32.7002 -98.5996 -17.9004c-12.5 -33.3994 -44.7002 -57.0996 -82.4004 -57.0996s-69.9004 23.7998 -82.4004 57.0996
c-32.5 -14.7998 -72 -8.69922 -98.5996 17.9004c-26.7002 26.5996 -32.5996 66.2002 -17.9004 98.5996c-33.3994 12.5 -57.0996 44.7002 -57.0996 82.4004s23.7002 69.9004 57.0996 82.4004c-14.6992 32.3994 -8.7998 71.8994 17.9004 98.5996
c26.5996 26.7002 66.2002 32.5996 98.5996 17.9004c12.5 33.3994 44.7002 57.0996 82.4004 57.0996s69.9004 -23.7002 82.4004 -57.0996c32.3994 14.6992 71.8994 8.7998 98.5996 -17.9004s32.5996 -66.2002 17.9004 -98.5996
c33.3994 -12.5 57.0996 -44.7002 57.0996 -82.4004zM192 288c-17.6699 0 -32 -14.3301 -32 -32s14.3301 -32 32 -32s32 14.3301 32 32s-14.3301 32 -32 32zM204.28 106.35l137.37 137.37c6.25 6.25 6.25 16.3799 0 22.6299l-11.3105 11.3105
c-6.25 6.25 -16.3799 6.25 -22.6299 0l-137.37 -137.37c-6.25 -6.25 -6.25 -16.3799 0 -22.6299l11.3105 -11.3105c6.25 -6.25 16.3799 -6.25 22.6299 0zM320 96c17.6699 0 32 14.3301 32 32s-14.3301 32 -32 32s-32 -14.3301 -32 -32s14.3301 -32 32 -32z" />
    <glyph glyph-name="bible" unicode="&#xf647;" horiz-adv-x="448" 
d="M448 89.5996c0 -9.59961 -3.2002 -16 -9.59961 -19.1992c-3.2002 -12.8008 -3.2002 -57.6006 0 -73.6006c6.39941 -6.39941 9.59961 -12.7998 9.59961 -19.2002v-16c0 -16 -12.7998 -25.5996 -25.5996 -25.5996h-326.4c-54.4004 0 -96 41.5996 -96 96v320
c0 54.4004 41.5996 96 96 96h326.4c16 0 25.5996 -9.59961 25.5996 -25.5996v-332.801zM144 304v-32c0 -8.83984 7.16016 -16 16 -16h48v-112c0 -8.83984 7.16016 -16 16 -16h32c8.83984 0 16 7.16016 16 16v112h48c8.83984 0 16 7.16016 16 16v32
c0 8.83984 -7.16016 16 -16 16h-48v48c0 8.83984 -7.16016 16 -16 16h-32c-8.83984 0 -16 -7.16016 -16 -16v-48h-48c-8.83984 0 -16 -7.16016 -16 -16zM380.8 0v64h-284.8c-16 0 -32 -12.7998 -32 -32s12.7998 -32 32 -32h284.8z" />
    <glyph glyph-name="business-time" unicode="&#xf64a;" horiz-adv-x="640" 
d="M496 224c79.5898 0 144 -64.4102 144 -144s-64.4102 -144 -144 -144s-144 64.4102 -144 144s64.4102 144 144 144zM560 73.71v12.5801c0 5.33984 -4.37012 9.70996 -9.70996 9.70996h-38.29v54.2803c0 5.33984 -4.37012 9.70996 -9.70996 9.70996h-12.5703
c-5.33984 0 -9.70996 -4.37012 -9.70996 -9.70996v-76.5703c0 -5.33984 4.37012 -9.70996 9.70996 -9.70996h60.5703c5.33984 0 9.70996 4.37012 9.70996 9.70996zM496 256c-37.5303 0 -72.2803 -11.9102 -100.88 -32h-395.12v80c0 25.5996 22.4004 48 48 48h80v48
c0 25.5996 22.4004 48 48 48h160c25.5996 0 48 -22.4004 48 -48v-48h80c25.5996 0 48 -22.4004 48 -48v-48.8096c-5.28027 0.479492 -10.5996 0.80957 -16 0.80957zM320 352v32h-128v-32h128zM326.82 128c-4.33984 -15.2803 -6.82031 -31.3398 -6.82031 -48
c0 -28.8203 7.09961 -55.96 19.4297 -80h-291.43c-25.5996 0 -48 22.4004 -48 48v144h192v-48c0 -8.83984 7.16016 -16 16 -16h118.82z" />
    <glyph glyph-name="cabinet-filing" unicode="&#xf64b;" 
d="M480 448c17.6699 0 32 -14.3301 32 -32v-192h-512v192c0 17.6699 14.3301 32 32 32h448zM352 296v40c0 8.83984 -7.16016 16 -16 16h-160c-8.83984 0 -16 -7.16016 -16 -16v-40c0 -4.41992 3.58008 -8 8 -8h16c4.41992 0 8 3.58008 8 8v24h128v-24
c0 -4.41992 3.58008 -8 8 -8h16c4.41992 0 8 3.58008 8 8zM0 -32v224h512v-224c0 -17.6699 -14.3301 -32 -32 -32h-448c-17.6699 0 -32 14.3301 -32 32zM160 80v-40c0 -4.41992 3.58008 -8 8 -8h16c4.41992 0 8 3.58008 8 8v24h128v-24c0 -4.41992 3.58008 -8 8 -8h16
c4.41992 0 8 3.58008 8 8v40c0 8.83984 -7.16016 16 -16 16h-160c-8.83984 0 -16 -7.16016 -16 -16z" />
    <glyph glyph-name="chart-line-down" unicode="&#xf64d;" 
d="M496 64c8.83984 0 16 -7.16016 16 -16v-32c0 -8.83984 -7.16016 -16 -16 -16h-464c-17.6699 0 -32 14.3301 -32 32v336c0 8.83984 7.16016 16 16 16h32c8.83984 0 16 -7.16016 16 -16v-304h432zM480 144c0 -8.83008 -7.16016 -16 -16 -16h-118.05
c-21.3799 0 -32.0898 25.8496 -16.9697 40.9697l32.3994 32.4004l-73.3799 73.3799l-73.3701 -73.3799c-12.4902 -12.5 -32.75 -12.5 -45.25 0l-68.6895 68.6895c-6.25 6.25 -6.25 16.3809 0 22.6309l22.6191 22.6191c6.25 6.25 16.3809 6.25 22.6309 0l46.0596 -46.0596
l73.3799 73.3799c12.4902 12.5 32.75 12.5 45.25 0l96 -96l32.4004 32.4004c15.1201 15.1201 40.9697 4.41016 40.9697 -16.9707v-118.06z" />
    <glyph glyph-name="chart-pie-alt" unicode="&#xf64e;" 
d="M461.29 160c9.54004 0 17.3896 -8.38965 16.0596 -17.8398c-16.8193 -119.08 -120.779 -210.12 -245.42 -206.03c-124.02 4.07031 -227.729 107.771 -231.8 231.8c-4.08984 124.641 86.9502 228.601 206.03 245.42c9.4502 1.33008 17.8398 -6.50977 17.8398 -16.0596
v-237.29h237.29zM288.8 447.96c119.46 -8.24023 214.92 -103.7 223.17 -223.16c0.620117 -9.10938 -7.05957 -16.7998 -16.2002 -16.7998h-223.77v223.76c0 9.14062 7.67969 16.8301 16.7998 16.2002z" />
    <glyph glyph-name="city" unicode="&#xf64f;" horiz-adv-x="640" 
d="M616 256c13.25 0 24 -10.7402 24 -24v-264c0 -17.6699 -14.3301 -32 -32 -32h-576c-17.6699 0 -32 14.3301 -32 32v360c0 13.2598 10.7402 24 24 24h40v80c0 8.83984 7.16016 16 16 16h16c8.83984 0 16 -7.16016 16 -16v-80h64v80c0 8.83984 7.16016 16 16 16h16
c8.83984 0 16 -7.16016 16 -16v-80h64v72c0 13.2598 10.7402 24 24 24h144c13.2598 0 24 -10.7402 24 -24v-168h136zM128 44v40c0 6.62988 -5.37012 12 -12 12h-40c-6.62988 0 -12 -5.37012 -12 -12v-40c0 -6.62988 5.37012 -12 12 -12h40c6.62988 0 12 5.37012 12 12z
M128 140v40c0 6.62988 -5.37012 12 -12 12h-40c-6.62988 0 -12 -5.37012 -12 -12v-40c0 -6.62988 5.37012 -12 12 -12h40c6.62988 0 12 5.37012 12 12zM128 236v40c0 6.62988 -5.37012 12 -12 12h-40c-6.62988 0 -12 -5.37012 -12 -12v-40c0 -6.62988 5.37012 -12 12 -12h40
c6.62988 0 12 5.37012 12 12zM256 44v40c0 6.62988 -5.37012 12 -12 12h-40c-6.62988 0 -12 -5.37012 -12 -12v-40c0 -6.62988 5.37012 -12 12 -12h40c6.62988 0 12 5.37012 12 12zM256 140v40c0 6.62988 -5.37012 12 -12 12h-40c-6.62988 0 -12 -5.37012 -12 -12v-40
c0 -6.62988 5.37012 -12 12 -12h40c6.62988 0 12 5.37012 12 12zM256 236v40c0 6.62988 -5.37012 12 -12 12h-40c-6.62988 0 -12 -5.37012 -12 -12v-40c0 -6.62988 5.37012 -12 12 -12h40c6.62988 0 12 5.37012 12 12zM416 140v40c0 6.62988 -5.37012 12 -12 12h-40
c-6.62988 0 -12 -5.37012 -12 -12v-40c0 -6.62988 5.37012 -12 12 -12h40c6.62988 0 12 5.37012 12 12zM416 236v40c0 6.62988 -5.37012 12 -12 12h-40c-6.62988 0 -12 -5.37012 -12 -12v-40c0 -6.62988 5.37012 -12 12 -12h40c6.62988 0 12 5.37012 12 12zM416 332v40
c0 6.62988 -5.37012 12 -12 12h-40c-6.62988 0 -12 -5.37012 -12 -12v-40c0 -6.62988 5.37012 -12 12 -12h40c6.62988 0 12 5.37012 12 12zM576 44v40c0 6.62988 -5.37012 12 -12 12h-40c-6.62988 0 -12 -5.37012 -12 -12v-40c0 -6.62988 5.37012 -12 12 -12h40
c6.62988 0 12 5.37012 12 12zM576 140v40c0 6.62988 -5.37012 12 -12 12h-40c-6.62988 0 -12 -5.37012 -12 -12v-40c0 -6.62988 5.37012 -12 12 -12h40c6.62988 0 12 5.37012 12 12z" />
    <glyph glyph-name="comment-alt-dollar" unicode="&#xf650;" 
d="M448 448c35.3496 0 64 -28.6504 64 -64v-288c0 -35.3496 -28.6504 -64 -64 -64h-144l-124.87 -93.6299c-7.91992 -5.85059 -19.1299 -0.200195 -19.1299 9.64941v83.9805h-96c-35.3496 0 -64 28.6504 -64 64v288c0 35.3496 28.6504 64 64 64h384zM280 145.56
c30.29 3.62012 53.3701 30.9805 49.3203 63.04c-2.90039 22.96 -20.6602 41.3105 -42.9102 47.6699l-50.0703 14.3008c-3.59961 1.0293 -6.12012 4.35938 -6.12012 8.10938c0 4.64062 3.78027 8.41992 8.44043 8.41992h32.7803
c0.0214844 0 0.0634766 -0.0126953 0.0859375 -0.0126953c3.62891 0 7.07422 -0.790039 10.1738 -2.20703c4.7998 -2.20996 10.3701 -1.70996 14.1094 2.03027l17.5205 17.5195c5.26953 5.27051 4.66992 14.2705 -1.5498 18.3799
c-9.5 6.27051 -20.3604 10.1104 -31.7803 11.46v17.7305c0 8.83984 -7.16016 16 -16 16h-16c-8.83984 0 -16 -7.16016 -16 -16v-17.5498c-30.29 -3.62012 -53.3701 -30.9805 -49.3203 -63.0498c2.90039 -22.96 20.6602 -41.3203 42.9102 -47.6699l50.0703 -14.3008
c3.59961 -1.0293 6.12012 -4.35938 6.12012 -8.10938c0 -4.64062 -3.78027 -8.41992 -8.44043 -8.41992h-32.7803c-3.59961 0 -7.0791 0.759766 -10.2598 2.21973c-4.7998 2.20996 -10.3701 1.70996 -14.1094 -2.03027l-17.5205 -17.5195
c-5.26953 -5.27051 -4.66992 -14.2705 1.5498 -18.3799c9.5 -6.27051 20.3604 -10.1104 31.7803 -11.46v-17.7305c0 -8.83984 7.16016 -16 16 -16h16c8.83984 0 16 7.16016 16 16v17.5596z" />
    <glyph glyph-name="comment-dollar" unicode="&#xf651;" 
d="M256 416c141.38 0 256 -93.1201 256 -208s-114.62 -208 -256 -208c-38.4102 0 -74.71 7.07031 -107.4 19.3799c-24.6094 -19.6299 -74.3398 -51.3799 -140.6 -51.3799l-0.00195312 0.00195312c-4.41309 0 -7.99512 3.58301 -7.99512 7.99512
c0 2.13184 0.835938 4.06934 2.19727 5.50293c0.5 0.530273 42.2598 45.4502 54.8193 95.7598c-35.6094 35.7305 -57.0195 81.1807 -57.0195 130.74c0 114.88 114.62 208 256 208zM280 113.56c30.29 3.62012 53.3701 30.9805 49.3203 63.04
c-2.90039 22.96 -20.6602 41.3105 -42.9102 47.6699l-50.0703 14.3008c-3.59961 1.0293 -6.12012 4.35938 -6.12012 8.10938c0 4.64062 3.78027 8.41992 8.44043 8.41992h32.7803c0.0214844 0 0.0634766 -0.0126953 0.0859375 -0.0126953
c3.62891 0 7.07422 -0.790039 10.1738 -2.20703c4.7998 -2.20996 10.3701 -1.70996 14.1094 2.03027l17.5205 17.5195c5.26953 5.27051 4.66992 14.2705 -1.5498 18.3799c-9.5 6.27051 -20.3604 10.1104 -31.7803 11.46v17.7305c0 8.83984 -7.16016 16 -16 16h-16
c-8.83984 0 -16 -7.16016 -16 -16v-17.5498c-30.29 -3.62012 -53.3701 -30.9805 -49.3203 -63.0498c2.90039 -22.96 20.6602 -41.3203 42.9102 -47.6699l50.0703 -14.3008c3.59961 -1.0293 6.12012 -4.35938 6.12012 -8.10938
c0 -4.64062 -3.78027 -8.41992 -8.44043 -8.41992h-32.7803c-3.59961 0 -7.0791 0.759766 -10.2598 2.21973c-4.7998 2.20996 -10.3701 1.70996 -14.1094 -2.03027l-17.5205 -17.5195c-5.26953 -5.27051 -4.66992 -14.2705 1.5498 -18.3799
c9.5 -6.27051 20.3604 -10.1104 31.7803 -11.46v-17.7305c0 -8.83984 7.16016 -16 16 -16h16c8.83984 0 16 7.16016 16 16v17.5596z" />
    <glyph glyph-name="comments-alt-dollar" unicode="&#xf652;" horiz-adv-x="576" 
d="M416 224c0 -35.3496 -28.6504 -64 -64 -64h-189.67l-82.79 -62.0703c-6.42969 -4.75977 -15.54 -0.160156 -15.54 7.83984v54.2305c-35.3496 0 -64 28.6504 -64 64v160c0 35.3496 28.6504 64 64 64h288c35.3496 0 64 -28.6504 64 -64v-160zM224 224.12
c23.6201 0.629883 42.6699 20.54 42.6699 45.0703c0 19.9697 -12.9902 37.8096 -31.5801 43.3896l-45 13.5c-5.16016 1.54004 -8.76953 6.78027 -8.76953 12.7295c0 7.27051 5.2998 13.1904 11.7998 13.1904h28.1104c4.55957 0 8.94922 -1.29004 12.8193 -3.71973
c3.24023 -2.03027 7.36035 -1.91016 10.1299 0.729492l11.75 11.21c3.53027 3.37012 3.33008 9.20996 -0.569336 12.1406c-9.10059 6.83984 -20.0801 10.7695 -31.3701 11.3496v16.29c0 4.41992 -3.58008 8 -8 8h-16c-4.41992 0 -8 -3.58008 -8 -8v-16.1201
c-23.6201 -0.629883 -42.6699 -20.5498 -42.6699 -45.0703c0 -19.9697 12.9893 -37.8096 31.5801 -43.3896l45 -13.5c5.15918 -1.54004 8.76953 -6.78027 8.76953 -12.7295c0 -7.27051 -5.2998 -13.1904 -11.7998 -13.1904h-28.1104
c-4.55957 0 -8.9502 1.2998 -12.8193 3.71973c-3.24023 2.03027 -7.36035 1.91016 -10.1309 -0.729492l-11.75 -11.21c-3.5293 -3.37012 -3.3291 -9.20996 0.570312 -12.1406c9.10059 -6.83008 20.0801 -10.7695 31.3701 -11.3496v-16.29c0 -4.41992 3.58008 -8 8 -8h16
c4.41992 0 8 3.58008 8 8v16.1201zM512 288c35.3496 0 64 -28.6504 64 -64v-160c0 -35.3496 -28.6504 -64 -64 -64h-32v-54.2305c0 -8 -9.09961 -12.5996 -15.54 -7.83984l-82.79 62.0703h-125.67c-35.3496 0 -64 28.6504 -64 64v64h160c52.9404 0 96 43.0703 96 96v64h64z
" />
    <glyph glyph-name="comments-dollar" unicode="&#xf653;" horiz-adv-x="576" 
d="M416 256c0 -88.3701 -93.1201 -160 -208 -160c-40.9805 0 -79.0703 9.24023 -111.27 24.9805c-21.8008 -12.7305 -52.1504 -24.9805 -88.7305 -24.9805l-0.00195312 0.00195312c-4.41309 0 -7.99512 3.58301 -7.99512 7.99512
c0 2.13184 0.835938 4.06934 2.19727 5.50293c0.319336 0.339844 22.4102 24.2803 35.7695 54.5195c-23.8398 26.0303 -37.9697 57.7109 -37.9697 91.9805c0 88.3701 93.1201 160 208 160s208 -71.6299 208 -160zM192 160c0 -4.41992 3.58008 -8 8 -8h16
c4.41992 0 8 3.58008 8 8v16.1201c23.6201 0.629883 42.6699 20.54 42.6699 45.0703c0 19.9697 -12.9902 37.8096 -31.5801 43.3896l-45 13.5c-5.16016 1.54004 -8.76953 6.78027 -8.76953 12.7295c0 7.27051 5.2998 13.1904 11.7998 13.1904h28.1104
c4.55957 0 8.94922 -1.29004 12.8193 -3.71973c3.24023 -2.03027 7.36035 -1.91016 10.1299 0.729492l11.75 11.21c3.53027 3.37012 3.33008 9.20996 -0.569336 12.1406c-9.10059 6.83984 -20.0801 10.7695 -31.3701 11.3496v16.29c0 4.41992 -3.58008 8 -8 8h-16
c-4.41992 0 -8 -3.58008 -8 -8v-16.1201c-23.6201 -0.629883 -42.6699 -20.5498 -42.6699 -45.0703c0 -19.9697 12.9893 -37.8096 31.5801 -43.3896l45 -13.5c5.15918 -1.54004 8.76953 -6.78027 8.76953 -12.7295c0 -7.27051 -5.2998 -13.1904 -11.7998 -13.1904h-28.1104
c-4.55957 0 -8.9502 1.2998 -12.8193 3.71973c-3.24023 2.03027 -7.36035 1.91016 -10.1309 -0.729492l-11.75 -11.21c-3.5293 -3.37012 -3.3291 -9.20996 0.570312 -12.1406c9.10059 -6.83008 20.0801 -10.7695 31.3701 -11.3496v-16.29zM538.01 36.0098
c13.3604 -30.2598 35.4707 -54.1699 35.7803 -54.5c2.20996 -2.33008 2.82031 -5.72949 1.5498 -8.66992c-1.25 -2.92969 -4.13965 -4.83984 -7.33984 -4.83984c-36.5801 0 -66.9297 12.25 -88.7305 24.9805c-32.1992 -15.7402 -70.2891 -24.9805 -111.27 -24.9805
c-86.2305 0 -160.2 40.3701 -191.73 97.8799c10.4102 -1.11035 20.9502 -1.87988 31.7305 -1.87988c132.34 0 240 86.1299 240 192c0 6.78027 -0.469727 13.4697 -1.33008 20.0703c75.8398 -23.8701 129.33 -81.1299 129.33 -148.07
c0 -34.2695 -14.1299 -65.96 -37.9902 -91.9902z" />
    <glyph glyph-name="dharmachakra" unicode="&#xf655;" 
d="M495 222.94c9.20996 0.569336 17 -6.74023 17.0098 -15.9707v-29.9395c0 -9.23047 -7.79004 -16.5498 -17 -15.9707l-17.2197 1.08008c-5.28027 -39.4795 -20.7998 -75.6299 -43.8604 -105.83l12.9502 -11.4297c6.91992 -6.09961 7.25977 -16.7803 0.730469 -23.3096
l-21.1699 -21.1699c-6.52051 -6.52051 -17.2002 -6.19043 -23.3105 0.729492l-11.4297 12.9502c-30.2002 -23.0703 -66.3506 -38.5898 -105.84 -43.8604l1.08008 -17.2197c0.569336 -9.20996 -6.74023 -17 -15.9707 -17h-29.9395c-9.23047 0 -16.5498 7.79004 -15.9707 17
l1.09082 17.2197c-39.4902 5.28027 -75.6406 20.7998 -105.841 43.8604l-11.4297 -12.9502c-6.09961 -6.91992 -16.7803 -7.25977 -23.3096 -0.729492l-21.1699 21.1699c-6.52051 6.51953 -6.19043 17.1992 0.729492 23.3096l12.9502 11.4297
c-23.0703 30.1904 -38.5898 66.3408 -43.8604 105.83l-17.2197 -1.08008c-9.20996 -0.569336 -17 6.74023 -17 15.9707v29.9395c0 9.23047 7.79004 16.5498 17 15.9707l17.2197 -1.08008c5.28027 39.4893 20.7998 75.6396 43.8604 105.84l-12.9502 11.4297
c-6.91992 6.10059 -7.25977 16.7803 -0.729492 23.3105l21.1699 21.1592c6.51953 6.52051 17.1992 6.19043 23.3096 -0.729492l11.4297 -12.9502c30.1904 23.0703 66.3408 38.5898 105.83 43.8604l-1.08008 17.2197c-0.569336 9.20996 6.74023 17 15.9707 17h29.9395
c9.23047 0 16.5498 -7.79004 15.9707 -17l-1.07031 -17.21c39.4795 -5.28027 75.6299 -20.7998 105.83 -43.8604l11.4297 12.9404c6.10059 6.91992 16.7803 7.25977 23.3105 0.729492l21.1592 -21.1592c6.52051 -6.52051 6.19043 -17.2002 -0.729492 -23.3105
l-12.9502 -11.4297c23.0703 -30.2002 38.5898 -66.3506 43.8604 -105.84zM281.84 349.39l-4.00977 -64.1201c10.2998 -2.40918 19.8896 -6.50977 28.6201 -11.9492l42.6201 48.29c-19.6006 14.1201 -42.4199 23.71 -67.2305 27.7793zM230.16 349.39
c-24.8105 -4.06934 -47.6299 -13.6592 -67.2305 -27.7793l42.6201 -48.29c8.73047 5.42969 18.3301 9.54004 28.6201 11.9492zM126.39 285.06c-14.1201 -19.5996 -23.71 -42.4092 -27.7793 -67.2197l64.1201 -4.00977c2.41992 10.29 6.51953 19.8896 11.96 28.6201z
M98.6104 166.16c4.06934 -24.8105 13.6592 -47.6299 27.7793 -67.2305l48.29 42.6201c-5.42969 8.73047 -9.54004 18.3301 -11.9492 28.6201zM230.16 34.6104l4 64.1201c-10.29 2.41992 -19.8906 6.51953 -28.6201 11.96l-42.6104 -48.3008
c19.6006 -14.1201 42.4199 -23.71 67.2305 -27.7793zM256 160c17.6699 0 32 14.3301 32 32s-14.3301 32 -32 32s-32 -14.3301 -32 -32s14.3301 -32 32 -32zM281.84 34.6104c24.8105 4.06934 47.6201 13.6592 67.2197 27.7793l-42.6094 48.3008
c-8.73047 -5.44043 -18.3301 -9.55078 -28.6201 -11.96zM385.61 98.9404c14.1201 19.5898 23.71 42.4092 27.7793 67.2295l-64.1201 4.00977c-2.40918 -10.2998 -6.50977 -19.8896 -11.9492 -28.6201zM349.27 213.83l64.1201 4
c-4.06934 24.8096 -13.6592 47.6299 -27.7793 67.2295l-48.3008 -42.6094c5.44043 -8.73047 9.55078 -18.3301 11.96 -28.6201z" />
    <glyph glyph-name="empty-set" unicode="&#xf656;" 
d="M507.31 420.69c6.25 -6.25 6.25 -16.3809 0 -22.6406l-72.0898 -72.0898c28 -37.3896 44.7803 -83.6602 44.7803 -133.96c0 -123.71 -100.29 -224 -224 -224c-50.2998 0 -96.5703 16.7803 -133.96 44.7695l-72.0898 -72.0898c-6.25 -6.25 -16.3799 -6.25 -22.6299 0
l-22.6299 22.6299c-6.25 6.25 -6.25 16.3809 0 22.6309l72.0898 72.0996c-28 37.3896 -44.7803 83.6602 -44.7803 133.96c0 123.71 100.29 224 224 224c50.3096 0 96.5703 -16.7803 133.97 -44.7803l72.0898 72.0898c6.25 6.25 16.3809 6.25 22.6309 0zM112 192
c0 -28.1104 8.41016 -54.1602 22.3896 -76.3496l197.96 197.96c-22.1895 13.9795 -48.2393 22.3896 -76.3496 22.3896c-79.4004 0 -144 -64.5996 -144 -144zM400 192c0 28.1104 -8.41016 54.1602 -22.4004 76.3496l-197.949 -197.96
c22.1895 -13.9795 48.2393 -22.3896 76.3496 -22.3896c79.4004 0 144 64.5996 144 144z" />
    <glyph glyph-name="folder-minus" unicode="&#xf65d;" 
d="M464 320c26.5098 0 48 -21.4902 48 -48v-224c0 -26.5098 -21.4902 -48 -48 -48h-416c-26.5098 0 -48 21.4902 -48 48v288c0 26.5098 21.4902 48 48 48h160l64 -64h192zM368 152v16c0 8.83984 -7.16016 16 -16 16h-192c-8.83984 0 -16 -7.16016 -16 -16v-16
c0 -8.83984 7.16016 -16 16 -16h192c8.83984 0 16 7.16016 16 16z" />
    <glyph glyph-name="folder-times" unicode="&#xf65f;" 
d="M464 320c26.5098 0 48 -21.4902 48 -48v-224c0 -26.5098 -21.4902 -48 -48 -48h-416c-26.5098 0 -48 21.4902 -48 48v288c0 26.5098 21.4902 48 48 48h160l64 -64h192zM340.85 109.09l-50.9092 50.9102l50.9092 50.9102c6.25 6.25 6.25 16.3799 0 22.6299
l-11.3096 11.3096c-6.25 6.25 -16.3799 6.25 -22.6299 0l-50.9102 -50.9092l-50.9102 50.9092c-6.25 6.25 -16.3799 6.25 -22.6299 0l-11.3096 -11.3096c-6.25 -6.25 -6.25 -16.3799 0 -22.6299l50.9092 -50.9102l-50.9092 -50.9102c-6.25 -6.25 -6.25 -16.3799 0 -22.6299
l11.3096 -11.3096c6.25 -6.25 16.3799 -6.25 22.6299 0l50.9102 50.9092l50.9102 -50.9092c6.25 -6.25 16.3799 -6.25 22.6299 0l11.3096 11.3096c6.25 6.25 6.25 16.3799 0 22.6299z" />
    <glyph glyph-name="folders" unicode="&#xf660;" horiz-adv-x="640" 
d="M96 112c0 -44.1104 35.8896 -80 80 -80h336v-48c0 -26.5098 -21.4902 -48 -48 -48h-416c-26.5098 0 -48 21.4902 -48 48v288c0 26.5098 21.4902 48 48 48h48v-208zM592 384c26.5098 0 48 -21.4902 48 -48v-224c0 -26.5098 -21.4902 -48 -48 -48h-416
c-26.5098 0 -48 21.4902 -48 48v288c0 26.5098 21.4902 48 48 48h160l64 -64h192z" />
    <glyph glyph-name="function" unicode="&#xf661;" horiz-adv-x="640" 
d="M288.73 128c0 -52.3398 16.9492 -103.23 48.0098 -144.94c5.16016 -6.93945 4.43945 -16.5293 -2.15039 -22.1396l-24.6895 -20.9902c-7 -5.94922 -17.8203 -5.08984 -23.3809 2.23047c-40.4297 53.25 -62.5195 118.609 -62.5195 185.84
c0 67.2197 22.0898 132.58 62.5195 185.84c5.55078 7.32031 16.3809 8.17969 23.3809 2.23047l24.6895 -20.9805c6.60059 -5.59961 7.32031 -15.2002 2.15039 -22.1396c-31.0498 -41.7305 -48.0098 -92.6104 -48.0098 -144.95zM224 432v-48c0 -8.83984 -7.16016 -16 -16 -16
h-48c-13.2002 0 -24 -10.7998 -24 -24v-64h40c8.83984 0 16 -7.16016 16 -16v-48c0 -8.83984 -7.16016 -16 -16 -16h-40v-128c0 -57.4404 -46.5596 -104 -104 -104h-16c-8.83984 0 -16 7.16016 -16 16v48c0 8.83984 7.16016 16 16 16h16c13.2002 0 24 10.7998 24 24v128h-40
c-8.83984 0 -16 7.16016 -16 16v48c0 8.83984 7.16016 16 16 16h40v64c0 57.4404 46.5596 104 104 104h48c8.83984 0 16 -7.16016 16 -16zM577.48 313.84c40.4297 -53.25 62.5195 -118.609 62.5195 -185.84c0 -67.2197 -22.0898 -132.57 -62.5195 -185.85
c-5.55078 -7.32031 -16.3809 -8.18066 -23.3809 -2.23047l-24.6895 20.9902c-6.60059 5.59961 -7.32031 15.2002 -2.15039 22.1396c31.0498 41.7197 48.0098 92.6104 48.0098 144.95s-16.96 103.24 -48.0098 144.95c-5.16016 6.93945 -4.43945 16.5303 2.15039 22.1396
l24.6895 20.9805c7 5.94922 17.8203 5.08984 23.3809 -2.23047zM523.31 81.9404c6.25 -6.25 6.25 -16.3809 0 -22.6309l-22.6191 -22.6191c-6.25 -6.25 -16.3809 -6.25 -22.6309 0l-46.0596 46.0596l-46.0596 -46.0596c-6.25 -6.25 -16.3809 -6.25 -22.6309 0
l-22.6191 22.6191c-6.25 6.25 -6.25 16.3809 0 22.6309l46.0596 46.0596l-46.0596 46.0596c-6.25 6.25 -6.25 16.3809 0 22.6309l22.6191 22.6191c6.25 6.25 16.3809 6.25 22.6309 0l46.0596 -46.0596l46.0596 46.0596c6.25 6.25 16.3809 6.25 22.6309 0l22.6191 -22.6191
c6.25 -6.25 6.25 -16.3809 0 -22.6309l-46.0596 -46.0596z" />
    <glyph glyph-name="funnel-dollar" unicode="&#xf662;" horiz-adv-x="640" 
d="M433.46 282.06c-83.4102 -20.8896 -145.46 -96.2695 -145.46 -186.06c0 -54.3496 22.7998 -103.38 59.21 -138.35c-10.75 -20.54 -38.3604 -29.21 -59.2197 -13.5703l-79.9902 60c-10.0703 7.55957 -16 19.4102 -16 32v155.92l-182.66 201.93
c-19.9502 19.9502 -5.82031 54.0703 22.4004 54.0703h480.52c28.2207 0 42.3506 -34.1201 22.4004 -54.0703zM480 256c88.3701 0 160 -71.6299 160 -160s-71.6299 -160 -160 -160s-160 71.6299 -160 160s71.6299 160 160 160zM496 16.1201
c23.6299 0.629883 42.6699 20.54 42.6699 45.0703c0 19.9697 -12.9902 37.8096 -31.5801 43.3896l-45 13.5c-5.16016 1.54004 -8.76953 6.78027 -8.76953 12.7295c0 7.27051 5.2998 13.1904 11.7998 13.1904h28.1104c4.55957 0 8.94922 -1.29004 12.8193 -3.71973
c3.24023 -2.03027 7.36035 -1.91016 10.1299 0.729492l11.75 11.21c3.53027 3.37012 3.33008 9.20996 -0.569336 12.1406c-9.10059 6.83984 -20.0801 10.7695 -31.3701 11.3496v16.29c0 4.41992 -3.58008 8 -8 8h-16c-4.41992 0 -8 -3.58008 -8 -8v-16.1201
c-23.6201 -0.629883 -42.6699 -20.5498 -42.6699 -45.0703c0 -19.9697 12.9893 -37.8096 31.5801 -43.3896l45 -13.5c5.15918 -1.54004 8.76953 -6.78027 8.76953 -12.7295c0 -7.27051 -5.2998 -13.1904 -11.7998 -13.1904h-28.1104
c-4.55957 0 -8.9502 1.2998 -12.8193 3.71973c-3.24023 2.03027 -7.36035 1.91016 -10.1309 -0.729492l-11.75 -11.21c-3.5293 -3.37012 -3.3291 -9.20996 0.570312 -12.1406c9.10059 -6.83008 20.0801 -10.7695 31.3701 -11.3496v-16.29c0 -4.41992 3.58008 -8 8 -8h16
c4.41992 0 8 3.58008 8 8v16.1201z" />
    <glyph glyph-name="gift-card" unicode="&#xf663;" horiz-adv-x="576" 
d="M528 320c26.5098 0 48 -21.4902 48 -48v-288c0 -26.5098 -21.4902 -48 -48 -48h-480c-26.5098 0 -48 21.4902 -48 48v288c0 26.5098 21.4902 48 48 48h60c-6.21973 12.0596 -10.0703 25.5195 -10.0703 40c0 48.5195 39.4805 88 88 88
c41.6006 0 68.5107 -21.3301 103.03 -68.3301c34.5303 46.9902 61.4404 68.3301 103.04 68.3301c48.5195 0 88 -39.4805 88 -88c0 -14.4805 -3.84961 -27.9404 -10.0703 -40h58.0703zM392 400c-20.3496 0 -34.71 -3.53027 -86.0703 -80h86.0703c22.0596 0 40 17.9502 40 40
c0 22.0596 -17.9404 40 -40 40zM145.93 360c0 -22.0498 17.9404 -40 40 -40h86.0703c-51.4902 76.7305 -66.1299 80 -86.0703 80c-22.0596 0 -40 -17.9404 -40 -40zM206.06 256h-142.06v-128h448v128h-142.06l35.7197 -35.71c6.25 -6.25 6.25 -16.3799 0 -22.6299
l-11.3105 -11.3105c-6.25 -6.25 -16.3799 -6.25 -22.6299 0l-69.6494 69.6504h-28.1299l-69.6602 -69.6602c-6.25 -6.25 -16.3799 -6.25 -22.6299 0l-11.3105 11.3105c-6.25 6.25 -6.25 16.3799 0 22.6299zM64 0h448v64h-448v-64z" />
    <glyph glyph-name="hamsa" unicode="&#xf665;" 
d="M509.34 140.75c1.70117 -3.9043 2.65918 -8.24805 2.65918 -12.7764c0 -8.42383 -3.26562 -16.0908 -8.59863 -21.8037l-102.681 -110.03c-35.6895 -38.2197 -88.4102 -60.1396 -144.72 -60.1396s-109.03 21.9199 -144.71 60.1396l-102.69 110.03
c-5.33301 5.71289 -8.58398 13.4141 -8.58398 21.8379c0 4.52832 0.943359 8.83789 2.64453 12.7422c5.05957 11.6904 16.5898 19.25 29.3398 19.25h64v208c0 22 18 40 40 40s40 -18 40 -40v-134c0 -5.51953 4.48047 -10 10 -10h20c5.51953 0 10 4.48047 10 10v174
c0 22 18 40 40 40s40 -18 40 -40v-174c0 -5.51953 4.48047 -10 10 -10h20c5.51953 0 10 4.48047 10 10v134c0 22 18 40 40 40s40 -18 40 -40v-208h64c12.75 0 24.2803 -7.55957 29.3398 -19.25zM256 32c53.0195 0 96 64 96 64s-42.9805 64 -96 64s-96 -64 -96 -64
s42.9805 -64 96 -64zM256 128c17.6699 0 32 -14.3301 32 -32s-14.3301 -32 -32 -32s-32 14.3301 -32 32s14.3301 32 32 32z" />
    <glyph glyph-name="integral" unicode="&#xf667;" horiz-adv-x="384" 
d="M377.21 374.97c10.6904 -13.7998 8.52051 -33.9395 -4.83984 -44.9697l-24.1797 -20c-13.3506 -11.04 -32.8408 -8.7998 -43.5205 5l-28.0303 36.2002l-79.1992 -339.11c-10.9404 -49.04 -55.5205 -81.8896 -105.341 -75.2197
c-25.3594 3.38965 -47.9092 18.5801 -63.8896 39.21l-21.4199 27.6504c-10.6904 13.7891 -8.53027 33.9297 4.82031 44.9795l24.1699 20c13.3496 11.0498 32.8398 8.80957 43.5293 -4.97949l23.9502 -30.9102l78.1602 334.359
c9.12012 40.8203 40.4404 74.4102 80.6299 79.9307c33.8203 4.63965 66.3799 -9.09082 87.1602 -35.9707z" />
    <glyph glyph-name="intersection" unicode="&#xf668;" horiz-adv-x="384" 
d="M166.74 414.38c117.09 15.0205 217.26 -76.2002 217.26 -190.38v-240c0 -8.83984 -7.16016 -16 -16 -16h-64c-8.83984 0 -16 7.16016 -16 16v236.21c0 46.4297 -31.29 89.0801 -76.8701 97.9297c-61.2803 11.9004 -115.13 -34.9395 -115.13 -94.1396v-240
c0 -8.83984 -7.16016 -16 -16 -16h-64c-8.83984 0 -16 7.16016 -16 16v233.32c0 97.5693 69.96 184.64 166.74 197.06z" />
    <glyph glyph-name="jedi" unicode="&#xf669;" horiz-adv-x="576" 
d="M535.953 96c-42.6406 -94.1719 -137.641 -160 -247.984 -160c-4.26562 0 -8.54688 0.0986328 -12.8447 0.296875c-103.969 4.76562 -193.859 69.4688 -235.109 159.703h39.9219l-58.6094 58.5938c-2.65332 12.8242 -4.38672 25.9951 -5.10938 39.4219
c-0.133789 3.5166 -0.202148 7.05078 -0.202148 10.5996c0 6.65527 0.234375 12.8477 0.702148 19.3848h47.2188l-41.3906 41.375c14.7842 66.6123 53.959 124.015 107.969 162.078c2.61426 1.87109 5.82812 2.98535 9.28125 3
c5.62793 -0.03125 10.5791 -2.89355 13.5 -7.25c1.76367 -2.57422 2.7959 -5.68848 2.7959 -9.04199c0 -2.13086 -0.414062 -4.19141 -1.1709 -6.05176c-6.31445 -15.834 -9.84375 -33.1904 -9.84375 -51.2656c0 -45.1094 21.0469 -86.5781 57.7188 -113.734
c4.07324 -2.96484 6.72266 -7.76855 6.72266 -13.1865c0 -4.86133 -2.13965 -9.2168 -5.51953 -12.2041c-26.5469 -23.9844 -41.1719 -56.5 -41.1719 -91.5781c0 -60.0312 42.9531 -110.281 99.8906 -121.922l2.5 65.2656l-27.1562 -18.4844
c-1.29688 -0.832031 -2.83887 -1.31445 -4.49219 -1.31445c-2.10352 0 -4.04004 0.777344 -5.50781 2.06445c-1.55078 1.46387 -2.51953 3.53809 -2.51953 5.83691c0 1.49414 0.416992 2.90234 1.12891 4.10059l20.125 33.7656l-42.0625 8.73438
c-3.64062 0.744141 -6.38379 3.96777 -6.38379 7.82812s2.74316 7.08398 6.38379 7.82812l42.0625 8.71875l-20.1094 33.7344c-0.724609 1.20312 -1.1416 2.61133 -1.1416 4.11719c0 4.41016 3.58105 7.99121 7.99121 7.99121c1.67188 0 3.22656 -0.510742 4.50977 -1.38965
l30.3906 -20.6562l11.5166 287.969c0.15918 4.25879 3.66797 7.66699 7.96484 7.66699c0.0117188 0 0.0234375 0.00488281 0.0351562 0.00488281h0.046875c4.29004 -0.0332031 7.78418 -3.44629 7.95312 -7.70312l11.5312 -287.922l30.3906 20.6719
c1.28223 0.855469 2.82227 1.35449 4.47852 1.35449c2.12793 0 4.07715 -0.820312 5.52148 -2.16699c1.54785 -1.45898 2.51465 -3.52832 2.51465 -5.82129c0 -1.48828 -0.415039 -2.89062 -1.12402 -4.08496l-20.1406 -33.7656l42.0781 -8.73438
c3.63379 -0.750977 6.36914 -3.97266 6.36914 -7.82812s-2.73535 -7.07715 -6.36914 -7.82812l-42.0781 -8.71875l20.1094 -33.7344c0.730469 -1.20508 1.15039 -2.61719 1.15039 -4.12793c0 -2.27637 -0.947266 -4.33984 -2.47852 -5.79395
c-1.46484 -1.32227 -3.4043 -2.12793 -5.53125 -2.12793c-1.6543 0 -3.20801 0.492188 -4.5 1.33105l-27.1719 18.4688l2.5 -65.3438c48.4844 9.40625 87.5781 48.1562 97.3125 96.5c1.68066 8.11816 2.56445 16.5254 2.56445 25.1387
c0 36.5547 -15.8574 69.3145 -41.127 91.9395c-3.38867 2.98926 -5.52734 7.3623 -5.52734 12.2314c0 5.42578 2.64844 10.2256 6.73047 13.1904c36.6562 27.1719 57.6875 68.6094 57.6875 113.734v0.0859375c0 18.0664 -3.53613 35.4062 -9.85938 51.2266
c-0.763672 1.86523 -1.18555 3.90625 -1.18555 6.0459c0 3.34668 1.0332 6.47949 2.79492 9.04785c2.9248 4.35059 7.875 7.20605 13.5 7.23438c3.44043 -0.0136719 6.64355 -1.12305 9.25 -2.98438c53.9287 -38.2227 93.0518 -95.6611 107.906 -162.281l-41.25 -41.2344
h46.9531c0.359375 -5.76562 1.04688 -11.4531 1.04688 -17.2656c-0.0332031 -17.8086 -1.7959 -35.0137 -5.125 -51.8594l-58.8906 -58.875h39.9688z" />
    <glyph glyph-name="kaaba" unicode="&#xf66b;" horiz-adv-x="576" 
d="M554.12 364.49c13.0703 -4.36035 21.8799 -16.5898 21.8799 -30.3604v-49.0098l-265 79.5098c-15.0596 4.5 -30.9502 4.5 -45.9805 0l-265.02 -79.5098v49.0098c0.000976562 14.1279 9.16992 26.1211 21.8799 30.3604l235.771 78.5801
c9.53711 3.17969 19.7705 4.90234 30.3711 4.90234c10.5996 0 20.8008 -1.72266 30.3389 -4.90234zM274.22 333.97c9 2.7207 18.5498 2.7207 27.5898 0l274.2 -82.2598v-228.39c0 -15 -10.4199 -27.9902 -25.0596 -31.2402l-242.12 -53.7998
c-6.72461 -1.49512 -13.5928 -2.28418 -20.7646 -2.28418s-14.1611 0.789062 -20.8857 2.28418l-242.12 53.7998c-14.6396 3.25977 -25.0596 16.2402 -25.0596 31.2402v228.38zM128 217.89v16.5801c0 5.28027 -5.01953 9.11035 -10.1104 7.7207l-80 -21.8203
c-3.47949 -0.950195 -5.88965 -4.11035 -5.88965 -7.71973v-16.5801c0 -5.27051 5.01953 -9.10059 10.1104 -7.7207l80 21.8203c3.47949 0.950195 5.88965 4.11035 5.88965 7.71973zM272 257.17v16.5801c0 5.28027 -5.01953 9.11035 -10.1104 7.71973l-96 -26.1797
c-3.47949 -0.950195 -5.88965 -4.11035 -5.88965 -7.71973v-16.5801c0 -5.28027 5.01953 -9.11035 10.1104 -7.7207l96 26.1807c3.47949 0.950195 5.88965 4.10938 5.88965 7.71973zM448 234.47v-16.5801c0 -0.00195312 0.00195312 -0.00195312 0.00195312 -0.00390625
c0 -3.68359 2.49609 -6.78906 5.8877 -7.71582l80 -21.8203c5.09082 -1.38965 10.1104 2.44043 10.1104 7.7207v16.5801c0 3.60938 -2.41016 6.76953 -5.88965 7.71973l-80 21.8203c-5.09082 1.38965 -10.1104 -2.44043 -10.1104 -7.7207zM304 273.74v-16.5801
c0 -0.00195312 0.00195312 -0.00292969 0.00195312 -0.00488281c0 -3.68359 2.49609 -6.78906 5.8877 -7.71484l96 -26.1807c5.09082 -1.38965 10.1104 2.44043 10.1104 7.7207v16.5791c0 3.61035 -2.41016 6.77051 -5.88965 7.7207l-96 26.1797
c-5.09082 1.38965 -10.1104 -2.44043 -10.1104 -7.71973z" />
    <glyph glyph-name="keynote" unicode="&#xf66c;" 
d="M368 0c8.83984 0 16 -7.16016 16 -16v-32c0 -8.83984 -7.16016 -16 -16 -16h-224c-8.83984 0 -16 7.16016 -16 16v32c0 8.83984 7.16016 16 16 16h80v64h64v-64h80zM508.62 166.76c2.21973 -4.4502 3.37988 -9.34961 3.37988 -14.3096v-24.4502
c0 -17.6699 -14.3301 -32 -32 -32h-448c-17.6699 0 -32 14.3301 -32 32v24.4502c0.00292969 5.12891 1.23145 10.0098 3.37988 14.3096l51.7803 103.55c5.25 10.502 16.0898 17.6895 28.6201 17.6904h12.2197c0 60.0898 41.7695 110.28 97.6904 123.98
c5.34961 20.6797 23.96 36.0195 46.3096 36.0195h64c26.5098 0 48 -21.4902 48 -48s-21.4902 -48 -48 -48h-64c-12.9697 0 -24.6904 5.19043 -33.3203 13.5498c-36.4697 -8.49023 -62.6797 -39.9297 -62.6797 -77.5498h284.22
c12.5303 -0.000976562 23.3701 -7.18848 28.6201 -17.6904z" />
    <glyph glyph-name="khanda" unicode="&#xf66d;" 
d="M415.81 382c73.71 -40.2402 111.78 -123.85 90.1602 -207.51c-7.25 -28.0898 -22.3799 -53.5703 -41.25 -75.5898l-52.5098 -61.3105c-4.87012 -5.67969 -13.04 -7.22949 -19.6504 -3.70996l-79.3496 42.2305l-29.21 -20.3408l47.0801 -32.7793
c1.66992 0.370117 3.22949 1.00977 5.00977 1.00977c13.25 0 23.9902 -10.7402 23.9902 -24c0 -13.25 -10.7402 -24 -23.9902 -24c-12.0898 0 -21.6797 9.11035 -23.3301 20.7598l-40.9102 28.4805v-30.1504c9.38086 -5.58008 15.9902 -15.3896 15.9902 -27.0996
c0 -17.6699 -14.3203 -32 -31.9795 -32c-17.6602 0 -31.9805 14.3301 -31.9805 32c0 11.7197 6.60059 21.5293 15.9902 27.0996v29.9502l-40.6299 -28.2803c-1.64062 -11.6494 -11.2305 -20.7598 -23.3301 -20.7598c-13.25 0 -23.9902 10.75 -23.9902 24
c0 13.2598 10.7402 24 23.9902 24c1.78027 0 3.33984 -0.639648 5.00977 -1.00977l47.0801 32.7793l-29.21 20.3301l-79.3496 -42.2295c-6.61035 -3.52051 -14.7803 -1.96973 -19.6504 3.71973l-55.9697 65.3604c-12.5703 14.6797 -23.3906 31.0693 -30.46 49.0596
c-35.6602 90.6904 2.95996 186.391 81.4893 229.24c6.34082 3.5 15.0205 2.63965 20.0205 -2.7002c4.99023 -5.30957 6.45996 -12.9199 2.58984 -19.0801c-16.4902 -26.1602 -25.2002 -56.3896 -25.2002 -87.4697c0.180664 -53.1904 26.7598 -102.62 71.0303 -132.18
l76.5898 -53.3301v19.8994l-44.0498 36.0908c-3.91016 4.20996 -5 10.0996 -2.81055 15.2793l7.85059 17.2402c-33.8506 19.2598 -56.9404 55.2402 -56.9404 96.9902c0 40.79 22.0205 76.1396 54.5898 95.7197l-5.21973 11.4404
c-2.33008 5.5293 -0.929688 11.8301 3.57031 16.04l58.9902 52.8096l58.9893 -52.8203c4.5 -4.20996 5.91016 -10.5098 3.57031 -16.04l-5.21973 -11.4395c32.5693 -19.5801 54.5898 -54.9199 54.5898 -95.71c0 -41.7402 -23.0996 -77.7305 -56.9404 -96.9902
l7.85059 -17.2402c2.18945 -5.18945 1.10938 -11.0801 -2.81055 -15.2793l-44.0498 -36.0908v-20.0996l76.6299 53.3496c44.5 29.7207 71.0801 79.1602 71.2705 132.41c0 31.0205 -8.70996 61.25 -25.2002 87.4102c-1.55762 2.46582 -2.46973 5.40723 -2.46973 8.53613
c0 4.25293 1.66602 8.12012 4.37988 10.9844c4.99023 5.34961 12.9902 6.51953 19.3594 3.01953zM319.82 272c0 21.3203 -10.5801 40.1201 -26.6504 51.7695l-7.83008 -17.1797c-8.75 -24.5195 -8.75 -51.04 0 -75.5596l5.65039 -12.4102
c17.3398 11.46 28.8301 31.0801 28.8301 53.3799zM191.89 272c0 -22.2998 11.5 -41.9297 28.8408 -53.3896l5.64941 12.4092c8.75 24.5303 8.75 51.04 0 75.5605l-7.83008 17.1797c-16.0801 -11.6396 -26.6602 -30.4395 -26.6602 -51.7598z" />
    <glyph glyph-name="lambda" unicode="&#xf66e;" horiz-adv-x="448" 
d="M424 64c13.25 0 24 -10.7402 24 -24v-48c0 -13.25 -10.75 -24 -24 -24h-81.5c-12.127 0.00195312 -22.668 6.72754 -28.0996 16.6797l-119.78 219.59l-95.0205 -221.72c-3.7793 -8.83008 -12.46 -14.5498 -22.0596 -14.5498h-52.2305
c-17.2295 0 -28.8398 17.6201 -22.0596 33.4502l132.88 310.06l-4.62988 8.49023h-107.5c-13.25 0 -24 10.75 -24 24v48c0 13.2598 10.75 24 24 24h145.5c12.127 -0.00195312 22.668 -6.72754 28.0996 -16.6797l182.9 -335.32h43.5z" />
    <glyph glyph-name="landmark" unicode="&#xf66f;" 
d="M501.62 355.89c6.24023 -2.33984 10.3799 -8.30957 10.3799 -14.9795v-36.9102c0 -8.83984 -7.16016 -16 -16 -16h-480c-8.83984 0 -16 7.16016 -16 16v36.9102c0.000976562 6.85547 4.31445 12.7041 10.3799 14.9795l234.39 90.0703
c3.49219 1.31152 7.30176 2.02832 11.25 2.02832c3.94727 0 7.72852 -0.716797 11.2207 -2.02832zM64 256h64v-160h96v160h64v-160h96v160h64v-160h16c8.83984 0 16 -7.16016 16 -16v-48h-448v48c0 8.83984 7.16016 16 16 16h16v160zM496 0c8.83984 0 16 -7.16016 16 -16
v-32c0 -8.83984 -7.16016 -16 -16 -16h-480c-8.83984 0 -16 7.16016 -16 16v32c0 8.83984 7.16016 16 16 16h480z" />
    <glyph glyph-name="lightbulb-dollar" unicode="&#xf670;" horiz-adv-x="352" 
d="M96.0596 -6.34961l-0.0498047 38.3496h159.98l-0.0400391 -38.3496c-0.0078125 -6.52637 -1.99219 -12.6309 -5.36035 -17.6904l-17.0898 -25.6904c-5.73242 -8.62305 -15.5176 -14.2793 -26.6396 -14.2793h-61.71c-11.123 0 -20.9072 5.65625 -26.6406 14.2793
l-17.0898 25.6904c-3.49023 5.24023 -5.34961 11.4004 -5.36035 17.6904zM175.45 448c97.46 0.299805 176.55 -78.6104 176.55 -176c0 -44.3701 -16.4502 -84.8496 -43.5596 -115.78c-16.5205 -18.8496 -42.3604 -58.2295 -52.21 -91.4502
c-0.0400391 -0.269531 -0.0703125 -0.519531 -0.110352 -0.779297h-160.24c-0.0400391 0.259766 -0.0703125 0.519531 -0.110352 0.779297c-9.84961 33.2207 -35.6895 72.6006 -52.21 91.4502c-27.1094 30.9307 -43.5596 71.4102 -43.5596 115.78
c0 93.0303 73.4404 175.69 175.45 176zM192 192.12c23.6201 0.629883 42.6699 20.54 42.6699 45.0703c0 19.9697 -12.9902 37.8096 -31.5801 43.3896l-45 13.5c-5.16016 1.54004 -8.76953 6.78027 -8.76953 12.7295c0 7.27051 5.2998 13.1904 11.7998 13.1904h28.1104
c4.55957 0 8.94922 -1.29004 12.8193 -3.71973c3.24023 -2.03027 7.36035 -1.91016 10.1299 0.729492l11.75 11.21c3.53027 3.37012 3.33008 9.20996 -0.569336 12.1406c-9.10059 6.83984 -20.0801 10.7695 -31.3701 11.3496v16.29c0 4.41992 -3.58008 8 -8 8h-16
c-4.41992 0 -8 -3.58008 -8 -8v-16.1201c-23.6201 -0.629883 -42.6699 -20.5498 -42.6699 -45.0703c0 -19.9697 12.9893 -37.8096 31.5801 -43.3896l45 -13.5c5.15918 -1.54004 8.76953 -6.78027 8.76953 -12.7295c0 -7.27051 -5.2998 -13.1904 -11.7998 -13.1904h-28.1104
c-4.55957 0 -8.9502 1.2998 -12.8193 3.71973c-3.24023 2.03027 -7.36035 1.91016 -10.1309 -0.729492l-11.75 -11.21c-3.5293 -3.37012 -3.3291 -9.20996 0.570312 -12.1406c9.10059 -6.83008 20.0801 -10.7695 31.3701 -11.3496v-16.29c0 -4.41992 3.58008 -8 8 -8h16
c4.41992 0 8 3.58008 8 8v16.1201z" />
    <glyph glyph-name="lightbulb-exclamation" unicode="&#xf671;" horiz-adv-x="352" 
d="M96.0596 -6.34961l-0.0498047 38.3496h159.98l-0.0400391 -38.3496c-0.0078125 -6.52637 -1.99219 -12.6309 -5.36035 -17.6904l-17.0898 -25.6904c-5.73242 -8.62305 -15.5176 -14.2793 -26.6396 -14.2793h-61.71c-11.123 0 -20.9072 5.65625 -26.6406 14.2793
l-17.0898 25.6904c-3.49023 5.24023 -5.34961 11.4004 -5.36035 17.6904zM175.45 448c97.46 0.299805 176.55 -78.6104 176.55 -176c0 -44.3701 -16.4502 -84.8496 -43.5596 -115.78c-16.5205 -18.8496 -42.3604 -58.2295 -52.21 -91.4502
c-0.0400391 -0.269531 -0.0703125 -0.519531 -0.110352 -0.779297h-160.24c-0.0400391 0.259766 -0.0703125 0.519531 -0.110352 0.779297c-9.84961 33.2207 -35.6895 72.6006 -52.21 91.4502c-27.1094 30.9307 -43.5596 71.4102 -43.5596 115.78
c0 93.0303 73.4404 175.69 175.45 176zM176 128c17.6699 0 32 14.3301 32 32s-14.3301 32 -32 32s-32 -14.3301 -32 -32s14.3301 -32 32 -32zM214.24 366.41c0.939453 9.41992 -6.4502 17.5898 -15.9199 17.5898h-44.6406c-9.46973 0 -16.8594 -8.16992 -15.9199 -17.5898
l12.7998 -128c0.820312 -8.17969 7.7002 -14.4102 15.9209 -14.4102h19.0391c8.2207 0 15.1006 6.23047 15.9209 14.4102z" />
    <glyph glyph-name="lightbulb-slash" unicode="&#xf673;" horiz-adv-x="640" 
d="M633.82 -10.0996c6.97949 -5.43066 8.22949 -15.4805 2.81934 -22.4502l-19.6396 -25.2705c-5.42969 -6.97949 -15.4805 -8.23926 -22.46 -2.80957l-588.36 454.729c-6.97949 5.43066 -8.22949 15.4805 -2.80957 22.4502l19.6396 25.2705
c5.41992 6.97949 15.4805 8.22949 22.46 2.80957l118.17 -91.3398c1.01074 1.94043 45.0508 94.71 156.36 94.71c97.2002 0 176 -78.7998 176 -176c0 -44.3701 -16.4502 -84.8496 -43.5596 -115.78c-3.84082 -4.37012 -8.2002 -10.0498 -12.71 -16.3096zM320 352
c8.83984 0 16 7.16016 16 16s-7.16016 16 -16 16c-47.3096 0 -87.6396 -29.5898 -104.03 -71.1602l26.8906 -20.7803c8.96973 34.3809 40 59.9404 77.1396 59.9404zM240.01 32h130.021l29.9297 -23.1396l-0.0195312 -15.21
c-0.0078125 -6.52637 -1.99219 -12.6309 -5.36035 -17.6904l-17.0898 -25.6904c-5.7334 -8.62305 -15.5176 -14.2793 -26.6406 -14.2793h-61.71c-11.1221 0 -20.9072 5.65625 -26.6396 14.2793l-17.0898 25.6904c-3.49023 5.24023 -5.35059 11.4004 -5.36035 17.6904z
M163.73 191.44l164.89 -127.45h-88.7402c-0.0400391 0.259766 -0.0703125 0.519531 -0.110352 0.779297c-9.84961 33.2207 -35.6895 72.6006 -52.21 91.4502c-9.33984 10.6504 -17.2598 22.5303 -23.8291 35.2207z" />
    <glyph glyph-name="mail-bulk" unicode="&#xf674;" horiz-adv-x="576" 
d="M160 0c25.5996 0 51.2002 22.4004 64 32c64 44.7998 83.2002 60.7998 96 70.4004v-134.4c0 -17.6699 -14.3301 -32 -32 -32h-256c-17.6699 0 -32 14.3301 -32 32v134.4c12.7998 -9.60059 32 -25.6006 96 -70.4004c12.7998 -9.59961 38.4004 -32 64 -32zM288 192
c17.6699 0 32 -14.3301 32 -32v-19.2002c-25.5996 -19.2002 -22.4004 -19.2002 -115.2 -86.3994c-9.59961 -3.2002 -28.7998 -22.4004 -44.7998 -22.4004s-35.2002 19.2002 -44.7998 25.5996c-92.7998 67.2002 -89.6006 67.2002 -115.2 86.4004v16
c0 17.6699 14.3301 32 32 32h256zM544 288c17.6699 0 32 -14.3301 32 -32v-192c0 -17.6699 -14.3301 -32 -32 -32h-192v134.4l-0.290039 -0.220703c-3.12012 32.4004 -30.5 57.8203 -63.71 57.8203h-96v32c0 17.6699 14.3301 32 32 32h320zM512 160v64h-64v-64h64zM160 256
v-32h-96v192c0 17.6699 14.3301 32 32 32h320c17.6699 0 32 -14.3301 32 -32v-96h-224c-35.29 0 -64 -28.71 -64 -64z" />
    <glyph glyph-name="megaphone" unicode="&#xf675;" horiz-adv-x="576" 
d="M32 272c11.3799 0 20.9004 -6.28027 26.5703 -15.2197l421.43 127.22v-384l-131.5 39.7002c-10.8398 -41.1299 -48.0098 -71.7002 -92.5 -71.7002c-52.9404 0 -96 43.0596 -96 96c0 10.8799 2.20996 21.1602 5.55957 30.9199l-106.989 32.2998
c-5.66992 -8.93945 -15.1904 -15.2197 -26.5703 -15.2197c-17.6699 0 -32 14.3301 -32 32v96c0 17.6699 14.3301 32 32 32zM211.29 81.1201c-2.0498 -5.33008 -3.29004 -11.0703 -3.29004 -17.1201c0 -26.4697 21.5303 -48 48 -48
c22.8496 0 41.9502 16.0801 46.7598 37.5098zM560 416c8.83984 0 16 -7.16016 16 -16v-416c0 -8.83984 -7.16016 -16 -16 -16h-32c-8.83984 0 -16 7.16016 -16 16v416c0 8.83984 7.16016 16 16 16h32z" />
    <glyph glyph-name="mosque" unicode="&#xf678;" horiz-adv-x="640" 
d="M0 -32v320h128v-320c0 -17.6699 -14.3301 -32 -32 -32h-64c-17.6699 0 -32 14.3301 -32 32zM579.16 160h-358.32c-17.8594 17.3896 -28.8398 37.3398 -28.8398 58.9102c0 52.8594 41.79 93.79 87.9199 122.899c41.9502 26.46 80.6299 57.7705 111.96 96.2207
l8.12012 9.96973l8.12012 -9.96973c31.3301 -38.4502 70.0195 -69.75 111.96 -96.2207c46.1299 -29.1094 87.9199 -70.04 87.9199 -122.899c0 -21.5703 -10.9805 -41.5205 -28.8398 -58.9102zM608 128c17.6699 0 32 -14.3301 32 -32v-128c0 -17.6699 -14.3301 -32 -32 -32
h-32v64c0 17.6699 -14.3301 32 -32 32s-32 -14.3301 -32 -32v-64h-64v72c0 48 -48 72 -48 72s-48 -24 -48 -72v-72h-64v64c0 17.6699 -14.3301 32 -32 32s-32 -14.3301 -32 -32v-64h-32c-17.6699 0 -32 14.3301 -32 32v128c0 17.6699 14.3301 32 32 32h416zM64 448
c0 0 64 -32 64 -96v-32h-128v32c0 64 64 96 64 96z" />
    <glyph glyph-name="om" unicode="&#xf679;" 
d="M360.6 387.06l-21.5801 21.5605c-1.89062 1.88867 -3.06055 4.50098 -3.06055 7.38086c0 2.88086 1.16992 5.49023 3.06055 7.37891l21.5703 21.5605c4.08008 4.06934 10.6797 4.06934 14.7598 0l21.5801 -21.5605c1.8916 -1.88867 3.06152 -4.50098 3.06152 -7.38086
c0 -2.88086 -1.16992 -5.49023 -3.06152 -7.37891l-21.5693 -21.5605c-1.88867 -1.89062 -4.50098 -3.06055 -7.38184 -3.06055s-5.49023 1.16992 -7.37891 3.06055zM412.11 256c55.0898 0 99.8896 -44.7998 99.8896 -99.8799v-100.12c0 -48.5303 -47.4805 -88 -96.0195 -88
c-96.0205 0 -96.0205 64 -96.0205 64v37.8701c0 7.55957 9.42969 10.8896 14.2002 5.01953c15.1494 -18.6494 42.4199 -42.8896 81.8203 -42.8896c13.2393 0 32.0098 10.7695 32.0098 24v100.12c0 19.79 -16.1006 35.8799 -35.8799 35.8799
c-9.60059 0 -18.6006 -3.73047 -25.3799 -10.5l-24.25 -24.25c-18.8701 -18.8604 -43.9502 -29.25 -70.6406 -29.25h-21.6895c11.0293 -18.9004 17.8096 -40.5801 17.8096 -64c0 -70.5801 -57.4297 -128 -128.02 -128c-118.811 0 -160.03 96 -159.94 150.81
c0.0195312 8.80078 10.2598 12.7705 14.79 5.2207c22.7998 -38.0107 49.1299 -92.0303 145.15 -92.0303c35.2998 0 64.0098 28.7002 64.0098 64s-28.71 64 -64.0098 64h-33.0303c-5.57031 0.450195 -10.6406 3.49023 -13.1699 8.5498l-16.0898 32.1699
c-5.35059 10.7002 2.42969 23.2803 14.3896 23.2803h31.9004c26.4697 0 48.0098 21.5303 48.0098 48s-21.54 48 -48.0098 48c-11.25 0 -21.8203 -3.80957 -30.2705 -10.71c-5.54004 -4.53027 -13.4795 -4.50977 -19.2002 -0.209961l-26.1494 19.6299
c-8.08984 6.08008 -8.48047 17.9697 -1.12012 24.9297c25.1094 23.7402 59.8594 34.71 96.0098 28.7803c43.1602 -7.08008 79.4199 -40.6396 89.5205 -83.1895c6.43945 -27.1201 2.80957 -53.1309 -7.73047 -75.2305h46.8398c9.60059 0 18.6006 3.73047 25.3799 10.5
l24.25 24.25c18.8701 18.8604 43.9502 29.25 70.6406 29.25zM454.29 380.73c10.5596 7.95996 25.7002 0.489258 25.7002 -12.7305v-35.5195c0 -2.36035 -0.509766 -4.71094 -1.53027 -6.83008c-2.96973 -6.30078 -21.8301 -37.6602 -101.75 -37.6602
c-78.4297 0 -117.19 69.3896 -118.8 72.3398c-3.61035 6.62988 -2.08008 14.8799 3.66016 19.7998c5.69922 4.92969 14.1201 5.16992 20.1396 0.549805c3.53027 -2.69922 87.0303 -65.0693 172.58 0.0507812z" />
    <glyph glyph-name="omega" unicode="&#xf67a;" 
d="M488 32c13.25 0 24 -10.75 24 -24v-48c0 -13.25 -10.75 -24 -24 -24h-136c-17.6699 0 -32 14.3301 -32 32v42.9199c0 20.0703 10.4297 38.2705 26.9199 49.7002c41.6797 28.8701 69.0801 76.9395 69.0801 131.38c0 99.5098 -91.3203 178.1 -194.56 156.36
c-62.4902 -13.1602 -112.101 -65.0801 -122.99 -128.011c-11.3105 -65.3896 17.4502 -125.14 65.6699 -159.06c16.79 -11.8096 27.8799 -30.0596 27.8799 -50.5898v-42.7002c0 -17.6699 -14.3301 -32 -32 -32h-136c-13.25 0 -24 10.75 -24 24v48c0 13.25 10.75 24 24 24
h32.6104c-35.3408 43.8203 -56.6104 99.4102 -56.6104 160c0 151.18 131.74 272.18 286.45 254.23c112.74 -13.0801 205.67 -102.591 222.58 -214.83c11.4102 -75.7207 -10.75 -146.23 -53.6406 -199.4h32.6104z" />
    <glyph glyph-name="pastafarianism" unicode="&#xf67b;" horiz-adv-x="640" 
d="M624.54 100.33c12.4004 -4.71973 18.5996 -18.5801 13.8896 -30.9805c-4.69922 -12.4092 -18.5801 -18.6299 -30.9697 -13.8799c-8.11035 3.08984 -14.3398 0.19043 -31.3896 -11.3594c-13.5508 -9.15039 -30.8301 -20.8408 -52.4199 -20.8408
c-7.16992 0 -14.8301 1.28027 -22.9707 4.39062c-32.6602 12.4395 -39.9893 41.3301 -45.3301 62.4395c-2.20996 8.7207 -3.98926 14.4902 -5.94922 18.8701c-16.6201 -13.5996 -36.9307 -25.8701 -61.6201 -34.1602c10.0098 -37 32.2793 -90.8096 60.2197 -90.8096
c13.25 0 24 -10.75 24 -24s-10.75 -24 -24 -24c-66.7402 0 -97.0498 88.6299 -107.42 129.14c-6.69043 -0.599609 -13.4199 -1.13965 -20.5801 -1.13965s-13.8896 0.540039 -20.5801 1.13965c-10.3701 -40.5098 -40.6797 -129.14 -107.42 -129.14c-13.25 0 -24 10.75 -24 24
s10.75 24 24 24c28.0801 0 50.2998 53.7998 60.2598 90.7998c-24.6895 8.29004 -45.0195 20.5605 -61.6396 34.1699c-1.95996 -4.37988 -3.74023 -10.1494 -5.9502 -18.8701c-5.34961 -21.1094 -12.6699 -50 -45.3301 -62.4395
c-8.13965 -3.11035 -15.7998 -4.39062 -22.9697 -4.39062c-21.5898 -0.0195312 -38.8701 11.6807 -52.4199 20.8408c-17.0498 11.5498 -23.2305 14.4492 -31.3906 11.3594c-12.3594 -4.72949 -26.25 1.4707 -30.9697 13.8799
c-4.71973 12.3906 1.48047 26.25 13.8701 30.9707c32.6504 12.4697 57.3398 -4.25 75.3701 -16.4502c17.0801 -11.5303 23.2998 -14.4199 31.4102 -11.3604c8.12012 3.10059 10.8301 9.37988 15.8896 29.3799c3.33008 13.1504 7.44043 29.3203 17.9502 42.6504
c-2.24023 2.91016 -4.42969 5.78027 -6.37988 8.57031c-10.1699 -9.56055 -23.4102 -17.1104 -41.7002 -17.1104c-33.9502 0 -50.8701 25.7803 -62.0596 42.8301c-10.6006 16.1396 -15 21.1699 -21.9404 21.1699c-13.25 0 -24 10.75 -24 24s10.75 24 24 24
c33.96 0 50.8799 -25.7803 62.0596 -42.8301c10.6006 -16.1396 15 -21.1699 21.9404 -21.1699c17.1504 0 37.6797 61.5596 97.2695 101.9l-17.25 34.5c-33.46 2.09961 -60.0195 29.6191 -60.0195 63.5996c0 35.3496 28.6504 64 64 64s64 -28.6504 64 -64
c0 -13.0195 -3.94043 -25.0996 -10.5996 -35.21l18.1494 -36.2998c16.9697 4.59961 35.6006 7.50977 56.46 7.50977c20.8604 0 39.4805 -2.91016 56.46 -7.50977l18.1504 36.2998c-6.67969 10.1104 -10.6201 22.1904 -10.6201 35.21c0 35.3496 28.6504 64 64 64
s64 -28.6504 64 -64c0 -33.9805 -26.5703 -61.5 -60.0098 -63.5898l-17.25 -34.5c59.7793 -40.4805 79.9502 -101.91 97.2598 -101.91c6.94043 0 11.3398 5.03027 21.9404 21.1699c11.1895 17.0498 28.1094 42.8301 62.0596 42.8301c13.25 0 24 -10.75 24 -24
s-10.75 -24 -24 -24c-6.94043 0 -11.3496 -5.03027 -21.9404 -21.1699c-11.1895 -17.0498 -28.1094 -42.8301 -62.0596 -42.8301c-18.29 0 -31.5303 7.5498 -41.7002 17.1201c-1.9502 -2.78027 -4.13965 -5.66016 -6.37988 -8.57031
c10.5098 -13.3301 14.6201 -29.5 17.9502 -42.6494c5.05957 -20 7.76953 -26.29 15.8896 -29.3809c8.16016 -3.05957 14.3506 -0.169922 31.4102 11.3604c18.0098 12.2002 42.6699 28.9697 75.3701 16.4502zM448 400c-8.82031 0 -16 -7.17969 -16 -16s7.17969 -16 16 -16
s16 7.17969 16 16s-7.17969 16 -16 16zM192 400c-8.82031 0 -16 -7.17969 -16 -16s7.17969 -16 16 -16s16 7.17969 16 16s-7.17969 16 -16 16z" />
    <glyph glyph-name="phone-office" unicode="&#xf67d;" horiz-adv-x="576" 
d="M128 32c-17.6699 0 -32 14.3301 -32 32v352c0 17.6699 14.3301 32 32 32h64c17.6699 0 32 -14.3301 32 -32v-352c0 -17.6699 -14.3301 -32 -32 -32h-64zM528 416c26.5098 0 48 -21.4902 48 -48v-384c0 -26.5098 -21.4902 -48 -48 -48h-480c-26.5098 0 -48 21.4902 -48 48
v384c0 26.5098 21.4902 48 48 48h16v-352c0 -35.29 28.71 -64 64 -64h64c35.29 0 64 28.71 64 64v352h272zM384 16v32c0 8.83984 -7.16016 16 -16 16h-32c-8.83984 0 -16 -7.16016 -16 -16v-32c0 -8.83984 7.16016 -16 16 -16h32c8.83984 0 16 7.16016 16 16zM384 144v32
c0 8.83984 -7.16016 16 -16 16h-32c-8.83984 0 -16 -7.16016 -16 -16v-32c0 -8.83984 7.16016 -16 16 -16h32c8.83984 0 16 7.16016 16 16zM512 16v32c0 8.83984 -7.16016 16 -16 16h-32c-8.83984 0 -16 -7.16016 -16 -16v-32c0 -8.83984 7.16016 -16 16 -16h32
c8.83984 0 16 7.16016 16 16zM512 144v32c0 8.83984 -7.16016 16 -16 16h-32c-8.83984 0 -16 -7.16016 -16 -16v-32c0 -8.83984 7.16016 -16 16 -16h32c8.83984 0 16 7.16016 16 16zM512 256v96h-192v-96h192z" />
    <glyph glyph-name="pi" unicode="&#xf67e;" 
d="M488 288h-104v-207.16c0 -9.28027 7.55957 -16.8398 16.8398 -16.8398c0.00683594 0 0.00585938 -0.0117188 0.0126953 -0.0117188c5.32031 0 10.0674 2.47754 13.1475 6.3418l17.7998 21.6299c8.28027 10.3604 23.3799 12.0303 33.7305 3.75l37.46 -29.9795
c10.3496 -8.28027 12.0293 -23.3809 3.75 -33.7305l-17.7998 -21.6602c-25.9805 -32.4697 -67.3604 -48.21 -109.62 -40.3398c-54.04 10.0596 -91.3203 60.4404 -91.3203 115.42v202.58h-64v-142.46c0 -62.0498 -21.0703 -120.87 -59.8301 -168.3
c-9.16992 -11.2207 -25.8701 -12.5303 -36.1201 -2.28027l-34.1094 34.1104c-8.27051 8.2793 -9.83008 21.6699 -2.56055 30.8496c23.7305 29.9902 36.6201 66.8203 36.6201 105.62v142.46h-111.97c-14.25 0 -21.3906 17.2305 -11.3105 27.3096l49.9404 49.9502
c12 12 28.2803 18.7402 45.25 18.7402h388.09c13.25 0 24 -10.7402 24 -24v-48c0 -13.25 -10.75 -24 -24 -24z" />
    <glyph glyph-name="place-of-worship" unicode="&#xf67f;" horiz-adv-x="640" 
d="M620.61 81.4502c11.4111 -4.89258 19.3896 -16.2168 19.3896 -29.4102v-100.04c0 -8.83984 -7.16016 -16 -16 -16h-112v192zM0 52.04c0 13.1934 7.97852 24.5176 19.3896 29.4102l108.61 46.5498v-192h-112c-8.83984 0 -16 7.16016 -16 16v100.04zM464.46 201.32
c9.63965 -5.78027 15.54 -16.2002 15.54 -27.4404v-237.88h-96v96c0 35.3496 -28.6602 64 -64 64s-64 -28.6504 -64 -64v-96h-96v237.88c0 11.6572 6.21387 21.8467 15.54 27.4404l48.46 29.0801v114.97c0 8.49023 3.37988 16.6299 9.37988 22.6299l75.3105 75.3096
c6.23926 6.25 16.3691 6.25 22.6191 0l75.3105 -75.3096c6.00977 -6.00977 9.37988 -14.1396 9.37988 -22.6299v-114.97z" />
    <glyph glyph-name="podium" unicode="&#xf680;" horiz-adv-x="448" 
d="M432 304c8.83984 0 16 -7.16016 16 -16v-16c0 -8.83984 -7.16016 -16 -16 -16h-416c-8.83984 0 -16 7.16016 -16 16v16c0 8.83984 7.16016 16 16 16h47.3496c6.81055 53.71 46.5 97.1504 98.5801 108.76c5.62012 20.2705 24.0107 35.2402 46.0703 35.2402h64
c26.5098 0 48 -21.4902 48 -48s-21.4902 -48 -48 -48h-64c-13.25 0 -25.2402 5.37012 -33.9297 14.0498c-31.9902 -6.75977 -56.3799 -31.1494 -62.71 -62.0498h320.64zM400 -16c8.83984 0 16 -7.16016 16 -16v-16c0 -8.83984 -7.16016 -16 -16 -16h-352
c-8.83984 0 -16 7.16016 -16 16v16c0 8.83984 7.16016 16 16 16h38.2197l-22.2197 240h320l-22.2197 -240h38.2197z" />
    <glyph glyph-name="pray" unicode="&#xf683;" horiz-adv-x="384" 
d="M256 320c-35.3496 0 -64 28.6504 -64 64s28.6504 64 64 64s64 -28.6504 64 -64s-28.6504 -64 -64 -64zM225.37 150.25l-24.1504 28.7598l-34.7998 -64.8701l109.86 -109.859c25.4893 -25.4902 5.7998 -68.2803 -28.2803 -68.2803h-208c-22.0898 0 -40 17.9102 -40 40
s17.9102 40 40 40h91.5596l-44.8096 34.8896c-42.8799 27.3799 -57.5898 80.1104 -34.1904 123.75l49.3701 92.0303c11.1201 20.6504 32.1807 34.4404 56.3701 36.9199c24.7803 2.58984 48.5605 -6.93945 64 -25.3301l38.9102 -46.3096l57.4404 47
c17.1191 13.9697 42.3398 11.4902 56.3096 -5.62012c13.9697 -17.0898 11.4697 -42.2998 -5.62012 -56.2803l-88 -72.0195c-16.9697 -13.8701 -41.9102 -11.5 -55.9697 5.21973z" />
    <glyph glyph-name="praying-hands" unicode="&#xf684;" horiz-adv-x="640" 
d="M272 256.09c17.5996 0 32 -14.3994 32 -32v-128c0 -51.8896 -34.8398 -98.0801 -84.75 -112.35l-179.19 -46.6201c-2.64941 -0.69043 -5.36914 -1.03027 -8.05957 -1.03027c-23.4805 0 -32 21.1797 -32 32v96
c0 0.00390625 -0.00488281 -0.000976562 -0.00488281 0.00292969c0 14.1221 9.1748 26.1182 21.8848 30.3477l90.1201 30.04v80.2295c0 18.9805 5.55957 37.3896 16.1201 53.2305l117.26 175.899c0.169922 0.270508 0.589844 0.25 0.790039 0.480469
c9.58008 13.5098 27.8496 17.8799 42.2998 9.20996c15.1602 -9.10059 20.0605 -28.75 10.9707 -43.9102l-77.75 -129.59c-8.9707 -14.9199 -13.6904 -32 -13.6904 -49.3906v-76.5498c0 -8.83984 7.16016 -16 16 -16s16 7.16016 16 16v80c0 17.6006 14.4004 32 32 32z
M618.12 94.3604c13.0703 -4.36035 21.8799 -16.5801 21.8799 -30.3506v-96c0 -10.8193 -8.51953 -32 -32 -32c-2.67969 0 -5.40039 0.339844 -8.05957 1.03027l-179.19 46.6201c-49.9102 14.2598 -84.75 60.4502 -84.75 112.34v128c0 17.5996 14.4004 32 32 32
s32 -14.4004 32 -32v-80c0 -8.83984 7.16016 -16 16 -16s16 7.16016 16 16v76.5498c0 17.3906 -4.71973 34.4697 -13.6904 49.3906l-77.75 129.59c-9.08984 15.1602 -4.18945 34.8193 10.9707 43.9102c14.4502 8.66992 32.7197 4.2998 42.2998 -9.20996
c0.200195 -0.240234 0.610352 -0.210938 0.790039 -0.480469l117.26 -175.89c10.5605 -15.8408 16.1201 -34.25 16.1201 -53.2305v-80.2295z" />
    <glyph glyph-name="presentation" unicode="&#xf685;" horiz-adv-x="576" 
d="M560 448c8.83984 0 16 -7.16016 16 -16v-32c0 -8.83984 -7.16016 -16 -16 -16h-16v-256c0 -17.6699 -14.3301 -32 -32 -32h-192v-34.75l75.3096 -75.3096c6.25 -6.25 6.25 -16.3809 0 -22.6309l-22.6191 -22.6191c-6.25 -6.25 -16.3809 -6.25 -22.6309 0
l-62.0596 62.0596l-62.0596 -62.0596c-6.25 -6.25 -16.3809 -6.25 -22.6309 0l-22.6191 22.6191c-6.25 6.25 -6.25 16.3809 0 22.6309l75.3096 75.3096v34.75h-192c-17.6699 0 -32 14.3301 -32 32v256h-16c-8.83984 0 -16 7.16016 -16 16v32c0 8.83984 7.16016 16 16 16h544
zM480 160v224h-384v-224h384z" />
    <glyph glyph-name="print-slash" unicode="&#xf686;" horiz-adv-x="640" 
d="M192 0h219.43l79.8604 -61.7197c-3.53027 -1.35059 -7.29004 -2.28027 -11.29 -2.28027h-320c-17.6699 0 -32 14.3301 -32 32v96h-48c-8.83984 0 -16 7.16016 -16 16v112c0 22.5996 11.7803 42.3604 29.4697 53.75l193.75 -149.75h-95.2197v-96zM633.82 -10.0996
c6.97949 -5.43066 8.22949 -15.4805 2.81934 -22.4502l-19.6396 -25.2705c-5.42969 -6.97949 -15.4805 -8.23926 -22.46 -2.80957l-588.36 454.729c-6.97949 5.43066 -8.22949 15.4805 -2.80957 22.4502l19.6396 25.2705c5.41992 6.97949 15.4805 8.22949 22.46 2.80957
l82.5303 -63.79v35.1602c0 17.6699 14.3301 32 32 32h274.74c8.49023 0 16.6299 -3.37012 22.6299 -9.37012l45.2598 -45.25c6 -6.00977 9.37012 -14.1396 9.37012 -22.6299v-114.75c35.3496 0 64 -28.6504 64 -64v-112c0 -8.83984 -7.16016 -16 -16 -16h-22.0498zM448 224
v96h-48c-8.83984 0 -16 7.16016 -16 16v48h-192v-52.6201l138.93 -107.38h117.07zM496 152c13.25 0 24 10.75 24 24c0 13.2598 -10.75 24 -24 24s-24 -10.7402 -24 -24c0 -13.25 10.75 -24 24 -24z" />
    <glyph glyph-name="quran" unicode="&#xf687;" horiz-adv-x="448" 
d="M448 89.5996c0 -9.59961 -3.2002 -16 -9.59961 -19.1992c-3.2002 -12.8008 -3.2002 -57.6006 0 -73.6006c6.39941 -6.39941 9.59961 -12.7998 9.59961 -19.2002v-16c0 -16 -12.7998 -25.5996 -25.5996 -25.5996h-326.4c-54.4004 0 -96 41.5996 -96 96v320
c0 54.4004 41.5996 96 96 96h326.4c16 0 25.5996 -9.59961 25.5996 -25.5996v-332.801zM301.08 302.18l-11.1904 -22.6494l-24.9893 -3.62988c-2.68066 -0.390625 -3.75 -3.66992 -1.81055 -5.56055l18.0898 -17.6299l-4.26953 -24.8896
c-0.360352 -2.11035 1.30957 -3.82031 3.20996 -3.82031c0.5 0 1.01953 0.120117 1.51953 0.379883l22.3604 11.75l22.3604 -11.75c0.5 -0.259766 1.01953 -0.379883 1.51953 -0.379883c1.90039 0 3.57031 1.70996 3.20996 3.82031l-4.26953 24.8896l18.0898 17.6299
c1.92969 1.89062 0.859375 5.16992 -1.81055 5.56055l-25 3.62988l-11.1797 22.6494c-0.599609 1.20996 -1.75977 1.82031 -2.91992 1.82031s-2.32031 -0.610352 -2.91992 -1.82031zM243.19 371.19c-63.5205 0 -115.19 -51.6709 -115.19 -115.19
c0 -63.5098 51.6699 -115.19 115.18 -115.18c13.6006 0 27.1201 2.46973 40.1904 7.33984c2.67969 0.910156 4.62012 3.43945 4.62012 6.41992c0 3.63965 -2.87012 6.78027 -6.7998 6.78027c-0.650391 0 -3.10059 -0.209961 -4.13086 -0.209961
c-52.3096 0 -94.8594 42.5596 -94.8594 94.8594c0 52.3105 42.5498 94.8604 94.8594 94.8604c1.04004 0 3.45996 -0.209961 4.13086 -0.209961c0.738281 -0.276367 1.54004 -0.429688 2.375 -0.429688c3.73926 0 6.77441 3.03516 6.77441 6.77441
c0 3.7373 -3.0332 6.77246 -6.76953 6.77539c-13.1201 4.91992 -26.71 7.41016 -40.3799 7.41016zM380.8 0v64h-284.8c-16 0 -32 -12.7998 -32 -32s12.7998 -32 32 -32h284.8z" />
    <glyph glyph-name="search-dollar" unicode="&#xf688;" 
d="M505.04 5.33984c9.2998 -9.39941 9.2998 -24.5898 -0.0996094 -33.9902l-28.3008 -28.2998c-9.2998 -9.39941 -24.5 -9.39941 -33.8994 0l-99.71 99.6904c-4.5 4.5 -7 10.5996 -7 17v16.2998c-35.2998 -27.5996 -79.71 -44 -128.011 -44
c-114.909 0 -208.02 93.0898 -208.02 207.979c0 114.891 93.1201 207.98 208.02 207.98c114.9 0 208.011 -93.0898 208.011 -207.98c0 -48.2998 -16.4004 -92.6895 -44 -127.989h16.2998c6.40039 0 12.5 -2.5 17 -7zM208.02 96.04c79.6504 0 144 64.4502 144 143.979
c0 79.6406 -64.46 143.98 -144 143.98c-79.6494 0 -144 -64.4502 -144 -143.98c0 -79.6396 64.4609 -143.979 144 -143.979zM235.13 248.58c18.6006 -5.58008 31.5898 -23.4199 31.5898 -43.3896c0 -24.5303 -19.0498 -44.4404 -42.6797 -45.0703v-16.1201
c0 -4.41992 -3.58008 -8 -8 -8h-16c-4.41992 0 -8 3.58008 -8 8v16.29c-11.29 0.580078 -22.2705 4.51953 -31.3701 11.3496c-3.90039 2.93066 -4.09961 8.77051 -0.570312 12.1406l11.75 11.21c2.77051 2.63965 6.89062 2.75977 10.1309 0.729492
c3.85938 -2.42969 8.25977 -3.71973 12.8193 -3.71973h28.1006c6.5 0 11.7998 5.91992 11.7998 13.1904c0 5.94922 -3.61035 11.1797 -8.77051 12.7295l-45.0098 13.5c-18.5898 5.58008 -31.5801 23.4199 -31.5801 43.3896c0 24.5205 19.0498 44.4404 42.6797 45.0703
v16.1201c0 4.41992 3.58008 8 8 8h16c4.4209 0 8 -3.58008 8 -8v-16.29c11.29 -0.580078 22.2705 -4.51953 31.3701 -11.3496c3.90039 -2.93066 4.10059 -8.77051 0.570312 -12.1406l-11.75 -11.21c-2.76953 -2.63965 -6.88965 -2.75977 -10.1299 -0.729492
c-3.86035 2.42969 -8.25977 3.71973 -12.8203 3.71973h-28.1094c-6.5 0 -11.8008 -5.91992 -11.8008 -13.1904c0 -5.94922 3.61035 -11.1797 8.77051 -12.7295z" />
    <glyph glyph-name="search-location" unicode="&#xf689;" 
d="M505.04 5.33984c9.2998 -9.39941 9.2998 -24.5898 -0.0996094 -33.9902l-28.3008 -28.2998c-9.2998 -9.39941 -24.5 -9.39941 -33.8994 0l-99.71 99.6904c-4.5 4.5 -7 10.5996 -7 17v16.2998c-35.2998 -27.5996 -79.71 -44 -128.011 -44
c-114.909 0 -208.02 93.0898 -208.02 207.979c0 114.891 93.1201 207.98 208.02 207.98c114.9 0 208.011 -93.0898 208.011 -207.98c0 -48.2998 -16.4004 -92.6895 -44 -127.989h16.2998c6.40039 0 12.5 -2.5 17 -7zM208.02 96.04c79.6504 0 144 64.4502 144 143.979
c0 79.6406 -64.46 143.98 -144 143.98c-79.6494 0 -144 -64.4502 -144 -143.98c0 -79.6396 64.4609 -143.979 144 -143.979zM208.04 336c40.7803 0 73.8398 -33.0498 73.8398 -73.8301c0 -32.9697 -48.2598 -93.0498 -66.75 -114.86
c-1.69531 -2.02832 -4.23926 -3.32031 -7.08691 -3.32031c-2.84863 0 -5.39746 1.29199 -7.09277 3.32031c-18.4902 21.8105 -66.75 81.9004 -66.75 114.86c0 40.7803 33.0596 73.8301 73.8398 73.8301zM208.04 240c13.25 0 24 10.75 24 24c0 13.2598 -10.75 24 -24 24
s-24 -10.7402 -24 -24c0 -13.25 10.7402 -24 24 -24z" />
    <glyph glyph-name="sigma" unicode="&#xf68b;" horiz-adv-x="384" 
d="M352 416c17.6699 0 32 -14.3301 32 -32v-72c0 -13.25 -10.75 -24 -24 -24h-48c-13.25 0 -24 10.75 -24 24v8h-145.75l109.09 -128l-109.09 -128h145.75v8c0 13.25 10.75 24 24 24h48c13.25 0 24 -10.75 24 -24v-72c0 -17.6699 -14.3301 -32 -32 -32h-299.97
c-19.6602 0 -37.4404 10.8896 -46.3398 28.4404c-8.91016 17.5293 -7.25 38.3096 4.33984 54.1992l122.63 141.36l-122.67 141.4c-11.5605 15.8496 -13.2207 36.6299 -4.31055 54.1592c8.91016 17.5508 26.6904 28.4404 46.3506 28.4404h299.97z" />
    <glyph glyph-name="signal-alt-slash" unicode="&#xf694;" horiz-adv-x="640" 
d="M633.82 -10.0996c6.97949 -5.43066 8.22949 -15.4805 2.81934 -22.4502l-19.6396 -25.2705c-5.42969 -6.97949 -15.4805 -8.23926 -22.46 -2.80957l-588.36 454.729c-6.97949 5.43066 -8.22949 15.4805 -2.80957 22.4502l19.6396 25.2705
c5.41992 6.97949 15.4805 8.22949 22.46 2.80957l306.53 -236.92v80.29c0 17.6699 14.3301 32 32 32h32c17.6699 0 32 -14.3301 32 -32v-154.49l64 -49.46v331.95c0 17.6699 14.3301 32 32 32h32c17.6699 0 32 -14.3301 32 -32v-406.14zM96 64c17.6699 0 32 -14.3301 32 -32
v-64c0 -17.6699 -14.3301 -32 -32 -32h-32c-17.6699 0 -32 14.3301 -32 32v64c0 17.6699 14.3301 32 32 32h32zM192 160c0 2.94043 0.929688 5.58984 1.66992 8.2998l94.3301 -72.8994v-127.4c0 -17.6699 -14.3301 -32 -32 -32h-32c-17.6699 0 -32 14.3301 -32 32v192z
M352 -32v77.9297l96 -74.1992v-3.73047c0 -17.6699 -14.3301 -32 -32 -32h-32c-17.6699 0 -32 14.3301 -32 32z" />
    <glyph glyph-name="signal-slash" unicode="&#xf695;" horiz-adv-x="640" 
d="M633.82 -10.0996c6.97949 -5.43066 8.23926 -15.4805 2.80957 -22.4404l-19.6396 -25.2695c-3.66016 -4.7207 -9.41992 -6.57031 -14.9307 -5.77051c-0.709961 -0.0996094 -1.3291 -0.419922 -2.05957 -0.419922h-2.55957
c-0.860352 1.19043 -1.68066 2.41992 -2.90039 3.37012l-588.36 454.729c-6.97949 5.43066 -8.22949 15.4805 -2.80957 22.4502l19.6396 25.2705c5.41992 6.97949 15.4805 8.22949 22.46 2.80957l245.4 -189.67c1.62988 0.55957 3.30957 1.04004 5.12988 1.04004h48
c8.83984 0 16 -7.16016 16 -16v-38.4697l48 -37.1006v171.57c0 8.83984 7.16016 16 16 16h48c8.83984 0 16 -7.16016 16 -16v-233.4l48 -37.0996v366.5c0 8.83984 7.16016 16 16 16h48c8.83984 0 16 -7.16016 16 -16v-428.33zM88 64c8.83984 0 16 -7.16016 16 -16v-96
c0 -8.83984 -7.16016 -16 -16 -16h-48c-8.83984 0 -16 7.16016 -16 16v96c0 8.83984 7.16016 16 16 16h48zM168 160h36.4102l27.5898 -21.3203v-186.68c0 -8.83984 -7.16016 -16 -16 -16h-48c-8.83984 0 -16 7.16016 -16 16v192c0 8.83984 7.16016 16 16 16zM280 -48v149.58
l80 -61.8301v-87.75c0 -8.83984 -7.16016 -16 -16 -16h-48c-8.83984 0 -16 7.16016 -16 16zM408 -48v50.6504l76.9805 -59.5c-2.88086 -4.20996 -7.49023 -7.15039 -12.9805 -7.15039h-48c-8.83984 0 -16 7.16016 -16 16z" />
    <glyph glyph-name="square-root" unicode="&#xf697;" horiz-adv-x="576" 
d="M552 448c13.25 0 24 -10.7402 24 -24v-48c0 -13.25 -10.75 -24 -24 -24h-194.97l-97.8105 -374.52c-9.83984 -32.4805 -37.0098 -41.4805 -54.2793 -41.4805c-18.6406 0 -35.9502 8.5 -48.4404 28.2695l-88.8799 163.73h-43.6201c-13.25 0 -24 10.75 -24 24v48
c0 13.2598 10.75 24 24 24h81.4697c12.0801 -0.00292969 22.584 -6.67871 28.0303 -16.5703l58.4102 -106.1l84.79 322.8c3.68945 14.0703 16.4102 23.8701 30.9502 23.8701h244.35z" />
    <glyph glyph-name="square-root-alt" unicode="&#xf698;" horiz-adv-x="576" 
d="M571.31 196.69c6.25 -6.25 6.25 -16.3809 0 -22.6309l-46.0596 -46.0596l46.0596 -46.0596c6.25 -6.25 6.25 -16.3809 0 -22.6309l-22.6191 -22.6191c-6.25 -6.25 -16.3809 -6.25 -22.6309 0l-46.0596 46.0596l-46.0596 -46.0596c-6.25 -6.25 -16.3809 -6.25 -22.6309 0
l-22.6191 22.6191c-6.25 6.25 -6.25 16.3809 0 22.6309l46.0596 46.0596l-46.0596 46.0596c-6.25 6.25 -6.25 16.3809 0 22.6309l22.6191 22.6191c6.25 6.25 16.3809 6.25 22.6309 0l46.0596 -46.0596l46.0596 46.0596c6.25 6.25 16.3809 6.25 22.6309 0zM552 448
c13.25 0 24 -10.7402 24 -24v-48c0 -13.25 -10.75 -24 -24 -24h-194.97l-97.8105 -374.52c-9.83984 -32.4805 -37.0098 -41.4805 -54.2793 -41.4805c-18.6406 0 -35.9502 8.5 -48.4404 28.2695l-88.8799 163.73h-43.6201c-13.25 0 -24 10.75 -24 24v48
c0 13.2598 10.75 24 24 24h81.4697c12.0801 -0.00292969 22.584 -6.67871 28.0303 -16.5703l58.4102 -106.1l84.79 322.8c3.68945 14.0703 16.4102 23.8701 30.9502 23.8701h244.35z" />
    <glyph glyph-name="star-and-crescent" unicode="&#xf699;" 
d="M340.47 -18.3604c8.74023 0 15.1299 -6.96973 15.1299 -15.0596c0 -6.62012 -4.31934 -12.2402 -10.2793 -14.2598c-29.04 -10.8301 -59.0898 -16.3203 -89.3203 -16.3203c-141.16 0 -256 114.84 -256 256s114.84 256 256 256c30.3896 0 60.5801 -5.54004 89.75 -16.4805
c6.91992 -2.59961 10.9297 -9.83984 9.46973 -17.0898c-1.41992 -7.04004 -7.62012 -12.0693 -14.75 -12.0693c-1.47949 0 -6.85938 0.459961 -9.17969 0.459961c-116.25 0 -210.82 -94.5703 -210.82 -210.82s94.5703 -210.82 210.82 -210.82
c2.29004 0 7.72949 0.459961 9.17969 0.459961zM503.46 234.14c8.16992 -1.17969 11.4297 -11.2197 5.52051 -16.9893l-55.2705 -53.8701l13.0498 -76.0703c1.11035 -6.42969 -4.00977 -11.6602 -9.80957 -11.6602c-1.53027 0 -3.11035 0.370117 -4.64062 1.16992
l-68.3096 35.9102l-68.3301 -35.9102c-1.53027 -0.80957 -3.11035 -1.16992 -4.63965 -1.16992c-5.7998 0 -10.9199 5.21973 -9.81055 11.6602l13.0498 76.0703l-55.2695 53.8701c-5.91016 5.76953 -2.65039 15.8096 5.51953 16.9893l76.3809 11.1006l34.1592 69.21
c1.83008 3.7002 5.38086 5.5498 8.93066 5.5498s7.09961 -1.84961 8.92969 -5.5498l34.1602 -69.21z" />
    <glyph glyph-name="synagogue" unicode="&#xf69b;" horiz-adv-x="640" 
d="M70 251.49c5.30957 6.00977 14.6904 6.00977 20 0l38 -43.0703v-272.42h-128v226.07l0.00488281 0.0185547c0 6.75391 2.51758 12.9229 6.66504 17.6211zM633.33 179.71c4.2998 -4.87012 6.66992 -11.1396 6.66992 -17.6396v-226.07h-128v272.42l38 43.0703
c5.30957 6.01953 14.6904 6.01953 20 0zM339.99 440.99l128 -102.4c7.58984 -6.07031 12.0098 -15.2695 12.0098 -24.9902v-377.6h-96v96c0 38.8701 -34.6602 69.6504 -74.75 63.1201c-31.4697 -5.12012 -53.25 -34.6699 -53.25 -66.5498v-92.5703h-96v377.6
c0 10.1123 4.67773 19.123 12.0098 24.9902l128 102.4c11.6904 9.34961 28.29 9.34961 39.9805 0zM392.06 225.44l-19.1895 30.5596l19.2002 30.5703c1.97949 3.14941 -0.290039 7.23926 -4 7.23926h-38.9502l-25.1201 39.9805c-1.84961 2.9502 -6.15039 2.9502 -8 0
l-25.1201 -40h-38.9395c-3.70996 0 -5.98047 -4.08984 -4 -7.24023l19.1992 -30.5596l-19.1992 -30.5605c-1.98047 -3.14941 0.279297 -7.23926 4 -7.23926h38.9395l25.1201 -39.9805c1.84961 -2.9502 6.15039 -2.9502 8 0l25.1201 39.9902h38.9395
c3.70996 0 5.98047 4.08984 4 7.24023z" />
    <glyph glyph-name="tally" unicode="&#xf69c;" horiz-adv-x="640" 
d="M639.21 278.51c2.74023 -8.41016 -1.87012 -17.4297 -10.2695 -20.1602l-84.9404 -27.4893v-246.86c0 -8.83984 -7.16016 -16 -16 -16h-32c-8.83984 0 -16 7.16016 -16 16v226.14l-64 -20.71v-205.43c0 -8.83984 -7.16016 -16 -16 -16h-32c-8.83984 0 -16 7.16016 -16 16
v184.72l-64 -20.71v-164.01c0 -8.83984 -7.16016 -16 -16 -16h-32c-8.83984 0 -16 7.16016 -16 16v143.3l-64 -20.71v-122.59c0 -8.83984 -7.16016 -16 -16 -16h-32c-8.83984 0 -16 7.16016 -16 16v101.87l-65.1602 -21.0801
c-8.39941 -2.73047 -17.4297 1.87012 -20.1602 10.2695l-9.88965 30.4307c-2.74023 8.39941 1.86035 17.4297 10.2695 20.1602l84.9404 27.4893v246.86c0 8.83984 7.16016 16 16 16h32c8.83984 0 16 -7.16016 16 -16v-226.14l64 20.71v205.43c0 8.83984 7.16016 16 16 16h32
c8.83984 0 16 -7.16016 16 -16v-184.72l64 20.71v164.01c0 8.83984 7.16016 16 16 16h32c8.83984 0 16 -7.16016 16 -16v-143.3l64 20.71v122.59c0 8.83984 7.16016 16 16 16h32c8.83984 0 16 -7.16016 16 -16v-101.88l65.1602 21.0898
c8.41016 2.73047 17.4297 -1.87012 20.1602 -10.2695z" />
    <glyph glyph-name="theta" unicode="&#xf69e;" horiz-adv-x="384" 
d="M192 440c107.66 0 192 -108.94 192 -248s-84.3398 -248 -192 -248s-192 108.94 -192 248s84.3398 248 192 248zM192 344c-41.4404 0 -77.3496 -44.4102 -90.4297 -104h180.859c-13.0801 59.5898 -48.9893 104 -90.4297 104zM192 40
c41.4404 0 77.3496 44.4102 90.4297 104h-180.859c13.0801 -59.5898 48.9893 -104 90.4297 -104z" />
    <glyph glyph-name="tilde" unicode="&#xf69f;" 
d="M339.54 66.4902c-35.5205 6.47949 -66.75 27.6797 -89.3096 55.8701l-66.5205 83.1494c-9.37988 11.7598 -23.4102 18.4902 -38.46 18.4902c-27.1602 0 -49.25 -22.0898 -49.25 -49.25v-47.75c0 -17.6699 -14.3301 -32 -32 -32h-32c-17.6699 0 -32 14.3301 -32 32
v40.9199c0 78.0996 58.6699 147.33 136.64 151.83c47.6006 2.75 92.54 -17.3896 122.051 -54.2695l69.5898 -87c9.38965 -11.75 23.4199 -18.4805 38.4697 -18.4805c27.1602 0 49.25 22.0898 49.25 49.25v46.75c0 17.6699 14.3301 32 32 32h32c17.6699 0 32 -14.3301 32 -32
v-46.75c0 -89 -80.4502 -159.56 -172.46 -142.76z" />
    <glyph glyph-name="torii-gate" unicode="&#xf6a1;" 
d="M376.45 416c48.5918 0.00292969 94.8242 11.6396 135.55 32v-96c0 -17.6699 -14.3301 -32 -32 -32h-32v-64h48c8.83984 0 16 -7.16016 16 -16v-32c0 -8.83984 -7.16016 -16 -16 -16h-48v-240c0 -8.83984 -7.16016 -16 -16 -16h-32c-8.83984 0 -16 7.16016 -16 16v240
h-256v-240c0 -8.83984 -7.16016 -16 -16 -16h-32c-8.83984 0 -16 7.16016 -16 16v240h-48c-8.83984 0 -16 7.16016 -16 16v32c0 8.83984 7.16016 16 16 16h48v64h-32c-17.6699 0 -32 14.3301 -32 32v96c40.7256 -20.3604 86.958 -31.9971 135.55 -32h240.9zM128 320v-64h96
v64h-96zM384 256v64h-96v-64h96z" />
    <glyph glyph-name="union" unicode="&#xf6a2;" horiz-adv-x="384" 
d="M384 400v-233.32c0 -97.5693 -69.96 -184.64 -166.74 -197.06c-117.09 -15.0205 -217.26 76.2002 -217.26 190.38v240c0 8.83984 7.16016 16 16 16h64c8.83984 0 16 -7.16016 16 -16v-236.21c0 -46.4297 31.29 -89.0801 76.8701 -97.9297
c61.2803 -11.9004 115.13 34.9395 115.13 94.1396v240c0 8.83984 7.16016 16 16 16h64c8.83984 0 16 -7.16016 16 -16z" />
    <glyph glyph-name="user-chart" unicode="&#xf6a3;" horiz-adv-x="640" 
d="M208 96c61.8604 0 112 -50.1396 112 -112c0 -26.5098 -21.4902 -48 -48 -48h-224c-26.5098 0 -48 21.4902 -48 48c0 61.8604 50.1396 112 112 112h3.80957c13.9307 -4.83008 28.6406 -8 44.1904 -8s30.2598 3.16992 44.1904 8h3.80957zM592 448
c26.4697 0 48 -22.25 48 -49.5898v-316.82c0 -27.3398 -21.5303 -49.5898 -48 -49.5898h-244.55c-6.57031 25.2695 -20.5898 47.3096 -39.6904 64h268.24v288h-352v-49.7998c-18.9004 11.0195 -40.5801 17.7998 -64 17.7998v46.4102c0 27.3398 21.5303 49.5898 48 49.5898
h384zM160 128c-53.0195 0 -96 42.9805 -96 96s42.9805 96 96 96s96 -42.9805 96 -96s-42.9805 -96 -96 -96zM328.97 280.97l55.0303 -55.0293l55.0303 55.0293l-24.2998 24.2998c-11.3408 11.3408 -3.31055 30.7305 12.7295 30.7305h88.54c6.62988 0 12 -5.37012 12 -12
v-88.54c0 -16.04 -19.3896 -24.0703 -30.7305 -12.7295l-24.2998 24.2998l-72 -72c-9.37012 -9.37012 -24.5693 -9.37012 -33.9395 0l-55.0303 55.0293l-26.0195 -26c1.03906 6.54004 2.01953 13.1201 2.01953 19.9502c0 14.8604 -3.04004 28.9199 -7.71973 42.21
l14.75 14.75c9.37012 9.37012 24.5693 9.37012 33.9395 0z" />
    <glyph glyph-name="user-crown" unicode="&#xf6a4;" horiz-adv-x="448" 
d="M352 448v-96h-256v96l64 -32l64 32l64 -32zM313.6 144c74.2305 0 134.4 -60.1699 134.4 -134.4v-25.5996c0 -26.5098 -21.4902 -48 -48 -48h-352c-26.5098 0 -48 21.4902 -48 48v25.5996c0 74.2305 60.1699 134.4 134.4 134.4h16.71
c22.2393 -10.1797 46.8799 -16 72.8896 -16s50.6504 5.82031 72.8896 16h16.71zM224 176c-70.6904 0 -128 57.3096 -128 128v16h256v-16c0 -70.6904 -57.3096 -128 -128 -128z" />
    <glyph glyph-name="users-crown" unicode="&#xf6a5;" horiz-adv-x="640" 
d="M96 224c-35.3496 0 -64 28.6504 -64 64s28.6504 64 64 64s64 -28.6504 64 -64s-28.6504 -64 -64 -64zM320 192c-53.0195 0 -96 42.9805 -96 96v16h192v-16c0 -53.0195 -42.9805 -96 -96 -96zM576 192c35.3496 0 64 -28.6504 64 -64v-32c0 -17.6699 -14.3301 -32 -32 -32
h-65.9404c-6.26953 47.3799 -34.8594 87.3496 -75.1299 109.41c11.5703 11.4795 27.4805 18.5898 45.0703 18.5898h64zM173.07 173.41c-40.2803 -22.0703 -68.8604 -62.0303 -75.1299 -109.41h-65.9404c-17.6699 0 -32 14.3301 -32 32v32c0 35.3496 28.6504 64 64 64h64
c17.5898 0 33.5 -7.11035 45.0703 -18.5898zM544 224c-35.3496 0 -64 28.6504 -64 64s28.6504 64 64 64s64 -28.6504 64 -64s-28.6504 -64 -64 -64zM396.8 160c63.6201 0 115.2 -51.5801 115.2 -115.2v-28.7998c0 -26.5098 -21.4902 -48 -48 -48h-288
c-26.5098 0 -48 21.4902 -48 48v28.7998c0 63.6201 51.5801 115.2 115.2 115.2h8.30957c20.8506 -9.95996 43.8906 -16 68.4902 -16s47.6504 6.04004 68.4902 16h8.30957zM416 416v-80h-192v80l48 -24l48 24l48 -24z" />
    <glyph glyph-name="value-absolute" unicode="&#xf6a6;" 
d="M48 416c8.83984 0 16 -7.16016 16 -16v-416c0 -8.83984 -7.16016 -16 -16 -16h-32c-8.83984 0 -16 7.16016 -16 16v416c0 8.83984 7.16016 16 16 16h32zM496 416c8.83984 0 16 -7.16016 16 -16v-416c0 -8.83984 -7.16016 -16 -16 -16h-32c-8.83984 0 -16 7.16016 -16 16
v416c0 8.83984 7.16016 16 16 16h32zM377.3 297.13c8.93066 -8.92969 8.93066 -23.4199 0 -32.3496l-72.7803 -72.7803l72.7803 -72.7803c8.93066 -8.93945 8.93066 -23.4199 0 -32.3496l-16.1699 -16.1699c-8.93945 -8.93066 -23.4199 -8.93066 -32.3496 0
l-72.7803 72.7803l-72.7803 -72.7803c-8.93945 -8.93066 -23.4199 -8.93066 -32.3496 0l-16.1699 16.1699c-8.93066 8.93945 -8.93066 23.4199 0 32.3496l72.7803 72.7803l-72.7803 72.7803c-8.93066 8.93945 -8.93066 23.4199 0 32.3496l16.1699 16.1699
c8.93945 8.93066 23.4199 8.93066 32.3496 0l72.7803 -72.7803l72.7803 72.7803c8.93945 8.93066 23.4199 8.93066 32.3496 0z" />
    <glyph glyph-name="vihara" unicode="&#xf6a7;" horiz-adv-x="640" 
d="M632.88 47.29c5.41992 -3.61035 7.7002 -9.62012 6.99023 -15.29c-0.620117 -5.00977 -3.56055 -9.75 -8.71973 -12.3301l-55.1504 -19.6699v-48c0 -8.83984 -7.16016 -16 -16 -16h-32c-8.83984 0 -16 7.16016 -16 16v48h-160v-48c0 -8.83984 -7.16016 -16 -16 -16h-32
c-8.83984 0 -16 7.16016 -16 16v48h-160v-48c0 -8.83984 -7.16016 -16 -16 -16h-32c-8.83984 0 -16 7.16016 -16 16v48l-55.1602 19.6699c-5.14941 2.58008 -8.09961 7.32031 -8.71973 12.3301c-0.700195 5.66016 1.58008 11.6699 7 15.29l88.8799 48.71v64
l-55.1602 17.6904c-11.79 5.89941 -11.79 22.7197 0 28.6191l119.16 49.6904v64l-27.3096 16.3096c-7.7207 7.7207 -5.61035 20.7402 4.15918 25.6201l183.15 86.0703l183.15 -86.0801c9.76953 -4.87988 11.8799 -17.9004 4.15918 -25.6201l-27.3096 -16.2998v-64
l119.16 -49.6904c11.79 -5.89941 11.79 -22.7197 0 -28.6191l-55.1602 -17.6904v-64zM224 320v-64h192v64h-192zM160 96h320v64h-320v-64z" />
    <glyph glyph-name="volume" unicode="&#xf6a8;" horiz-adv-x="480" 
d="M215.03 376.95c15.0098 15.0098 40.9697 4.49023 40.9697 -16.9697v-335.961c0 -21.4395 -25.9404 -32 -40.9697 -16.9697l-88.9707 88.9502h-102.06c-13.2598 0 -24 10.75 -24 24v144c0 13.2598 10.7402 24 24 24h102.06zM480 192
c0 -63.5303 -32.0596 -121.94 -85.7695 -156.24c-12 -7.67969 -26.6104 -2.89941 -33.1201 7.45996c-7.09082 11.29 -3.78027 26.2207 7.40918 33.3604c39.75 25.3896 63.4805 68.5303 63.4805 115.42s-23.7305 90.0303 -63.4805 115.42
c-11.1895 7.15039 -14.5 22.0801 -7.40918 33.3604c7.08984 11.2793 21.9297 14.5996 33.1201 7.45996c53.71 -34.2998 85.7695 -92.71 85.7695 -156.24zM338.23 268.87c28.2393 -15.54 45.7793 -44.9805 45.7793 -76.8604s-17.54 -61.3301 -45.7695 -76.8799
c-11.5605 -6.34961 -26.1807 -2.20996 -32.6104 9.4502c-6.38965 11.6104 -2.16016 26.2002 9.4502 32.6104c12.9004 7.08984 20.9199 20.4297 20.9199 34.8096c0 14.3701 -8.01953 27.7197 -20.9297 34.8096c-11.6104 6.41016 -15.8398 21 -9.4502 32.6104
c6.41992 11.6104 21.0303 15.7803 32.6104 9.4502z" />
    <glyph glyph-name="volume-mute" unicode="&#xf6a9;" 
d="M215.03 376.95c15.0098 15.0098 40.9697 4.49023 40.9697 -16.9697v-335.961c0 -21.4395 -25.9404 -32 -40.9697 -16.9697l-88.9707 88.9502h-102.06c-13.2598 0 -24 10.75 -24 24v144c0 13.2598 10.7402 24 24 24h102.06zM461.64 192l45.6406 -45.6396
c6.2998 -6.30078 6.2998 -16.5205 0 -22.8203l-22.8203 -22.8203c-6.2998 -6.2998 -16.5195 -6.2998 -22.8203 0l-45.6396 45.6406l-45.6299 -45.6299c-6.2998 -6.30078 -16.5205 -6.30078 -22.8203 0l-22.8193 22.8193c-6.30078 6.2998 -6.30078 16.5205 0 22.8203
l45.6299 45.6299l-45.6406 45.6396c-6.2998 6.30078 -6.2998 16.5205 0 22.8203l22.8203 22.8203c6.2998 6.2998 16.5195 6.2998 22.8203 0l45.6396 -45.6406l45.6396 45.6406c6.30078 6.2998 16.5205 6.2998 22.8203 0l22.8203 -22.8203
c6.2998 -6.2998 6.2998 -16.5195 0 -22.8203z" />
    <glyph glyph-name="wifi-slash" unicode="&#xf6ac;" horiz-adv-x="640" 
d="M5.08984 293.13c4.19043 3.87012 8.67969 7.2002 12.9805 10.9102l64.96 -50.21c-7.33984 -5.79004 -14.6602 -11.6104 -21.6504 -18.0098c-6.37988 -5.85059 -16.2598 -5.70996 -22.3994 0.379883l-34.2402 33.96c-6.44043 6.37988 -6.31055 16.8096 0.349609 22.9697z
M476.84 111.23l156.99 -121.33c6.97949 -5.41992 8.22949 -15.4805 2.80957 -22.4502l-19.6396 -25.2705c-5.42969 -6.97949 -15.4805 -8.23926 -22.46 -2.80957l-588.36 454.729c-6.97949 5.43066 -8.22949 15.4805 -2.80957 22.4502l19.6396 25.2705
c5.41992 6.97949 15.4805 8.22949 22.46 2.80957l87.9502 -67.9795c164.66 72.1094 363.04 44.5293 501.49 -83.5303c6.64941 -6.15039 6.79004 -16.5801 0.349609 -22.9697l-34.2402 -33.96c-6.13965 -6.09082 -16.0195 -6.23047 -22.3994 -0.380859
c-102.68 94.0605 -244.49 121.41 -370.43 83.0508l83.1592 -64.2705c81.4307 7.67969 165.4 -17.2402 230.341 -74.9795c6.85938 -6.11035 7.08984 -16.71 0.569336 -23.1699zM118.31 179.61c9.7002 8.62012 19.96 16.25 30.4404 23.3994l68.3604 -52.8301
c-15.1406 -7.88965 -29.8008 -16.9492 -43.1504 -28.5498c-6.34961 -5.51953 -15.9697 -5.12988 -21.9404 0.799805l-34.2793 34.0107c-6.50977 6.46973 -6.29004 17.0693 0.569336 23.1699zM256 32c0 26.1797 15.7695 48.6299 38.29 58.54l88.7002 -68.5596
c-4.83984 -30.5605 -31.0801 -53.9805 -62.9902 -53.9805c-35.3496 0 -64 28.6504 -64 64z" />
  </font>
</defs>
</svg>
