<?xml version="1.0" standalone="no"?>
<!DOCTYPE svg PUBLIC "-//W3C//DTD SVG 1.1//EN" "http://www.w3.org/Graphics/SVG/1.1/DTD/svg11.dtd" >
<svg xmlns="http://www.w3.org/2000/svg" xmlns:xlink="http://www.w3.org/1999/xlink" version="1.1">
<metadata>
Created by FontForge 20200314 at Wed Jan 13 11:59:56 2021
 By Robert Madole
Copyright (c) Font Awesome
</metadata>
<!-- Font Awesome Pro 5.15.2 by @fontawesome - https://fontawesome.com License - https://fontawesome.com/license (Commercial License) --><defs>
<font id="FontAwesome5Pro-Light" horiz-adv-x="512" >
  <font-face 
    font-family="Font Awesome 5 Pro Light"
    font-weight="300"
    font-stretch="normal"
    units-per-em="512"
    panose-1="2 0 3 3 0 0 0 0 0 0"
    ascent="448"
    descent="-64"
    bbox="-0.00158497 -64.21 640.002 449.978"
    underline-thickness="25"
    underline-position="-50"
    unicode-range="U+0020-F8FF"
  />
    <missing-glyph />
    <glyph glyph-name="rocket" unicode="&#xf135;" 
d="M505.073 428.656c7.00195 -32.6562 7.00195 -58.125 6.9082 -83.6562c0 -103.25 -55.3809 -165.938 -128.168 -212.703v-101.516c0 -16.3594 -11.877 -35.5469 -26.502 -42.8594l-98.7275 -49.3906c-3.24414 -1.4873 -6.86035 -2.38867 -10.625 -2.53125
c-13.21 0.0800781 -23.9219 10.791 -24.002 24v92.6719l-21.377 -10.5781c-18.8398 -9.33789 -34.7754 4.27734 -36.6289 6.14062l-53.7539 53.7188c-1.87891 1.84961 -15.4922 17.7148 -6.15625 36.625l10.5938 21.4219h-92.6328
c-13.2451 0.00292969 -23.998 10.7549 -24.002 24c0.134766 3.79297 1.03613 7.43555 2.53125 10.7031l49.4102 98.8125c7.3457 14.6094 26.5332 26.4688 42.8789 26.4844h101.416c46.7227 72.9062 109.163 128 212.923 128c25.4082 0 50.9414 0 83.5703 -7
c5.59375 -1.20312 11.125 -6.73438 12.3438 -12.3438zM36.9414 192h95.5078c15.8457 32 33.627 67.9375 47.5664 96h-85.1953c-5.4375 -0.015625 -11.8125 -3.96875 -14.2812 -8.79688zM351.843 30.8125v85.25c-28.0664 -13.9531 -63.8799 -31.7188 -95.8838 -47.5469
v-95.5156l87.0068 43.5469c4.875 2.42188 8.8457 8.82812 8.87695 14.2656zM366.468 159.094c78.5078 50.4531 113.51 107.844 113.51 185.922c0.0625 21.4844 0.15625 41.8281 -4.1875 66.6875c-24.627 4.29688 -45.0977 4.29688 -66.6309 4.29688
c-78.5059 0 -135.979 -35 -186.202 -113.406c-19.6895 -39.5938 -67.3496 -135.953 -88.2266 -178.188l53.8164 -53.5469c42.0352 20.7969 138.417 68.4531 177.921 88.2344zM367.989 359.971c30.8975 -0.0136719 55.9795 -25.0967 55.9922 -55.9941
c0 -30.9043 -25.0869 -55.9961 -55.9922 -55.9961c-30.9043 0 -55.9951 25.0908 -55.9951 55.9951s25.0908 55.9951 55.9951 55.9951zM367.989 279.979c13.2383 0.0146484 23.9834 10.7598 23.9961 23.998c0 13.2451 -10.751 23.998 -23.9961 23.998
c-13.2441 0 -23.998 -10.7529 -23.998 -23.998s10.7539 -23.998 23.998 -23.998z" />
    <glyph glyph-name="plug" unicode="&#xf1e6;" horiz-adv-x="384" 
d="M352 320c17.6611 0 32 -14.3389 32 -32v-32c0 -17.6611 -14.3389 -32 -32 -32v-32c0 -82.75 -63.3701 -150.22 -144 -158.38v-97.6201h-32v97.6201c-80.6299 8.16016 -144 75.6299 -144 158.38v32c-17.6611 0 -32 14.3389 -32 32v32c0 17.6611 14.3389 32 32 32h48v112
c0 8.83105 7.16895 16 16 16s16 -7.16895 16 -16v-112h160v112c0 8.83105 7.16895 16 16 16s16 -7.16895 16 -16v-112h48zM320 192v32h-256v-32c0 -70.6455 57.3545 -128 128 -128s128 57.3545 128 128zM352 256v32h-320v-32h320z" />
    <glyph glyph-name="hand-spock" unicode="&#xf259;" 
d="M503.039 332.322c5.65918 -9.13867 8.96094 -19.9434 8.96094 -31.4727c0 -4.8418 -0.577148 -9.5498 -1.66406 -14.0596l-61.8926 -259.937c-12.2393 -52.0186 -58.9746 -90.8535 -114.706 -90.8535h-0.321289h-115.417
c-0.0722656 0 -0.183594 0.000976562 -0.255859 0.000976562c-38.9443 0 -74.3633 15.21 -100.637 40.0088l-98.1416 92.3643c-11.6797 10.9902 -18.9414 26.584 -18.9414 43.8721c0 33.248 26.9932 60.2412 60.2412 60.2412c15.9609 0 30.4805 -6.2207 41.2637 -16.3672
l5.49414 -5.17188c-0.396484 1.39648 1.96094 -6.58203 -39.3027 132.697c-1.62402 5.44629 -2.50391 11.1963 -2.50391 17.167c0 33.1943 26.9492 60.1445 60.1445 60.1445c6.27832 0 12.334 -0.963867 18.0264 -2.75195l-3.74219 14.5527
c-1.24219 4.81641 -1.91406 9.81836 -1.91406 15.0195c0 33.251 26.9941 60.2451 60.2451 60.2451c28.0732 0 51.6865 -19.2432 58.3594 -45.2471l35.1416 -136.675l21.4873 104.761c4.38477 21.332 31.2412 59.9062 77.2568 45.3125
c25.415 -8.0625 41.8389 -31.9688 41.7529 -58.4668c6.16699 2.12402 12.7676 3.29102 19.6523 3.29102c4.83789 0 9.54297 -0.569336 14.0527 -1.64453c15.7715 -3.70508 29.1406 -13.5908 37.3604 -27.0312zM479.206 294.202
c8.58691 35.9844 -46.1318 50.0303 -54.9512 13.084l-26.6396 -111.881c-4.52344 -18.9844 -32.8193 -12.3145 -28.9814 6.42188l30.667 149.501c8.11816 39.5859 -47.5332 49.3828 -54.9941 13.0898l-34.1475 -166.479
c-3.69141 -17.9824 -29.374 -18.752 -33.9814 -0.839844l-50.834 197.708c-9.31348 36.2207 -64.0732 22.373 -54.7061 -14.0859l45.5859 -177.298c4.97461 -19.3691 -24.1787 -27.8613 -29.9678 -8.28906l-33.6709 113.638
c-10.6201 35.8262 -64.8604 20.041 -54.1816 -16.0459l38.6826 -130.566c7.06543 -23.8389 10.9053 -49.0771 10.9053 -75.1953c0 -6.5293 -8.0459 -10.9473 -13.4814 -5.82617l-54.9102 51.6797c-27.1885 25.6738 -65.9131 -15.543 -38.707 -41.1367l98.1426 -92.3682
c20.5625 -19.4072 48.3135 -31.3125 78.792 -31.3125h0.171875h115.417c0.078125 0 0.146484 0.046875 0.224609 0.046875c40.6494 0 74.7461 28.2793 83.6729 66.2207z" />
    <glyph glyph-name="shower" unicode="&#xf2cc;" 
d="M336 128c-8.83105 0 -16 7.16895 -16 16s7.16895 16 16 16s16 -7.16895 16 -16s-7.16895 -16 -16 -16zM368 256c8.83105 0 16 -7.16895 16 -16s-7.16895 -16 -16 -16s-16 7.16895 -16 16s7.16895 16 16 16zM368 160c-8.83105 0 -16 7.16895 -16 16s7.16895 16 16 16
s16 -7.16895 16 -16s-7.16895 -16 -16 -16zM336 224c8.83105 0 16 -7.16895 16 -16s-7.16895 -16 -16 -16s-16 7.16895 -16 16s7.16895 16 16 16zM400 192c-8.83105 0 -16 7.16895 -16 16s7.16895 16 16 16s16 -7.16895 16 -16s-7.16895 -16 -16 -16zM432 224
c-8.83105 0 -16 7.16895 -16 16s7.16895 16 16 16s16 -7.16895 16 -16s-7.16895 -16 -16 -16zM304 192c8.83105 0 16 -7.16895 16 -16s-7.16895 -16 -16 -16s-16 7.16895 -16 16s7.16895 16 16 16zM304 128c8.83105 0 16 -7.16895 16 -16s-7.16895 -16 -16 -16
s-16 7.16895 -16 16s7.16895 16 16 16zM304 64c8.83105 0 16 -7.16895 16 -16s-7.16895 -16 -16 -16s-16 7.16895 -16 16s7.16895 16 16 16zM432 192c8.83105 0 16 -7.16895 16 -16s-7.16895 -16 -16 -16s-16 7.16895 -16 16s7.16895 16 16 16zM381.66 343.36
c1.46191 -1.4502 2.36719 -3.46191 2.36719 -5.68164c0 -2.21875 -0.905273 -4.22852 -2.36719 -5.67871l-169.71 -169.63c-1.44824 -1.44727 -3.44922 -2.34277 -5.65625 -2.34277s-4.20605 0.895508 -5.6543 2.34277l-11.3193 11.3203
c-1.44727 1.44727 -2.34277 3.44922 -2.34277 5.65527c0 2.20703 0.895508 4.20605 2.34277 5.6543l5.91016 5.87988c-21.6904 20.1777 -35.1797 49.0479 -35.1797 80.9795c0 25.1338 8.41113 48.3184 22.5693 66.8906l-23.4297 23.4199
c-13.4863 13.4912 -32.126 21.832 -52.6904 21.832c-41.1172 0 -74.5 -33.3828 -74.5 -74.5v-0.0214844v-333.48c0 -4.41504 -3.58496 -8 -8 -8h-16c-4.41504 0 -8 3.58496 -8 8v333.48c0 58.7783 47.7354 106.53 106.515 106.53
c29.3916 0 56.0176 -11.9316 75.2949 -31.2109l23.4404 -23.4199c18.5723 14.1582 41.8408 22.6562 66.9746 22.6562c31.9316 0 60.7178 -13.5762 80.8955 -35.2666l5.91016 5.91016c1.44727 1.44727 3.44922 2.34277 5.65625 2.34277
c2.20605 0 4.20508 -0.895508 5.65332 -2.34277zM218 213.66l112.34 112.34c-14.3965 15.9414 -35.2012 25.9492 -58.3398 26c-44.1299 -0.0498047 -79.9502 -35.8701 -80 -80c0.0507812 -23.1387 10.0586 -43.9434 26 -58.3398zM496 256c8.83105 0 16 -7.16895 16 -16
s-7.16895 -16 -16 -16s-16 7.16895 -16 16s7.16895 16 16 16zM464 224c8.83105 0 16 -7.16895 16 -16s-7.16895 -16 -16 -16s-16 7.16895 -16 16s7.16895 16 16 16zM336 96c8.83105 0 16 -7.16895 16 -16s-7.16895 -16 -16 -16s-16 7.16895 -16 16s7.16895 16 16 16z
M368 128c8.83105 0 16 -7.16895 16 -16s-7.16895 -16 -16 -16s-16 7.16895 -16 16s7.16895 16 16 16zM400 160c8.83105 0 16 -7.16895 16 -16s-7.16895 -16 -16 -16s-16 7.16895 -16 16s7.16895 16 16 16z" />
    <glyph glyph-name="bath" unicode="&#xf2cd;" 
d="M504 192c4.41504 0 8 -3.58496 8 -8v-16c0 -4.41504 -3.58496 -8 -8 -8h-24v-96c0 -41.7402 -26.7998 -76.9004 -64 -90.1201v-29.8799c0 -4.41504 -3.58496 -8 -8 -8h-16c-4.41504 0 -8 3.58496 -8 8v24h-256v-24c0 -4.41504 -3.58496 -8 -8 -8h-16
c-4.41504 0 -8 3.58496 -8 8v29.8799c-37.2002 13.2197 -64 48.3799 -64 90.1201v96h-24c-4.41504 0 -8 3.58496 -8 8v16c0 4.41504 3.58496 8 8 8h24v194.75c0.0205078 33.7822 27.4619 61.2119 61.248 61.2119c16.9082 0 32.2256 -6.86719 43.3115 -17.9619
l25.2402 -25.1797c11.0254 7.02051 24.1807 11.1455 38.2002 11.1797c20.2998 0 38.21 -8.7998 51.2598 -22.3398l11.7705 11.7598c1.44727 1.44727 3.44922 2.34277 5.65625 2.34277c2.20605 0 4.20508 -0.895508 5.65332 -2.34277l11.3203 -11.3096
c1.4502 -1.44824 2.34766 -3.45215 2.34766 -5.66113c0 -2.20996 -0.897461 -4.21094 -2.34766 -5.65918l-124.45 -124.42c-1.44824 -1.4502 -3.45215 -2.34766 -5.66113 -2.34766s-4.21094 0.897461 -5.65918 2.34766l-11.3096 11.3203
c-1.44727 1.44727 -2.34277 3.44922 -2.34277 5.65527c0 2.20703 0.895508 4.20605 2.34277 5.6543l11.7598 11.7402c-13.54 13.0498 -22.3398 30.96 -22.3398 51.2598c0.0371094 14.0186 4.16113 27.1729 11.1797 38.2002l-25.2393 25.2402
c-5.2959 5.29004 -12.6113 8.55957 -20.6807 8.55957c-16.1455 0 -29.2539 -13.1055 -29.2598 -29.25v-194.75h440zM228.71 371.1c-7.05762 7.89648 -17.3047 12.8643 -28.71 12.9004c-22.0762 0 -40 -17.9238 -40 -40c0.0361328 -11.4053 5.00391 -21.6523 12.9004 -28.71z
M448 64v96h-384v-96c0.0380859 -35.3047 28.6953 -63.9619 64 -64h256c35.3047 0.0380859 63.9619 28.6953 64 64z" />
    <glyph glyph-name="compress-alt" unicode="&#xf422;" horiz-adv-x="448" 
d="M9.1709 -28.4854l-5.65625 5.65625c-4.68555 4.68652 -4.68555 12.2842 0 16.9707l165.858 165.858h-61.373c-6.62695 0 -12 5.37305 -12 12v8c0 6.62695 5.37305 12 12 12h100c8.83691 0 16 -7.16309 16 -16v-100c0 -6.62695 -5.37305 -12 -12 -12h-8
c-6.62695 0 -12 5.37305 -12 12v61.373l-165.858 -165.858c-4.68652 -4.68652 -12.2842 -4.68652 -16.9707 0zM240 192c-8.83691 0 -16 7.16309 -16 16v100c0 6.62695 5.37305 12 12 12h8c6.62695 0 12 -5.37305 12 -12v-61.373l165.858 165.858
c4.68652 4.68555 12.2842 4.68555 16.9707 0l5.65625 -5.65625c4.68555 -4.6875 4.68555 -12.2852 0 -16.9707l-165.858 -165.858h61.373c6.62695 0 12 -5.37305 12 -12v-8c0 -6.62695 -5.37305 -12 -12 -12h-100z" />
    <glyph glyph-name="expand-alt" unicode="&#xf424;" horiz-adv-x="448" 
d="M198.829 172.485l5.65625 -5.65625c4.68555 -4.68652 4.68555 -12.2842 0 -16.9707l-149.858 -149.858h61.373c6.62695 0 12 -5.37305 12 -12v-8c0 -6.62695 -5.37305 -12 -12 -12h-104c-6.62695 0 -12 5.37305 -12 12v104c0 6.62695 5.37305 12 12 12h8
c6.62695 0 12 -5.37305 12 -12v-61.373l149.858 149.858c4.68652 4.68652 12.2842 4.68652 16.9707 0zM436 416c6.62695 0 12 -5.37305 12 -12v-104c0 -6.62695 -5.37305 -12 -12 -12h-8c-6.62695 0 -12 5.37305 -12 12v61.373l-149.858 -149.858
c-4.68652 -4.68555 -12.2842 -4.68555 -16.9707 0l-5.65625 5.65625c-4.68555 4.6875 -4.68555 12.2852 0 16.9707l149.858 149.858h-61.373c-6.62695 0 -12 5.37305 -12 12v8c0 6.62695 5.37305 12 12 12h104z" />
    <glyph glyph-name="balance-scale-left" unicode="&#xf515;" horiz-adv-x="640" 
d="M634.4 200.91c3.86914 -5.78027 6.08984 -12.7197 5.50977 -19.6406c-5.46973 -65.6699 -60.6504 -117.27 -127.91 -117.27s-122.44 51.5996 -127.91 117.27c-0.580078 6.9209 1.64062 13.8604 5.50977 19.6406l109.051 175.97
c3.16992 4.74023 8.25977 7.12012 13.3496 7.12012s10.1797 -2.37988 13.3496 -7.12012zM512 96c41.2803 0 77 26.7695 90.4199 64h-181.2c13.2305 -36.8701 49.2002 -64 90.7803 -64zM421.73 192h181.25l-90.9404 145.76zM536 -32c4.41992 0 8 -3.58008 8.00977 -8v-16
c0 -4.41992 -3.58008 -8 -8 -8h-224c-4.41992 0 -8 3.58008 -8 8v378.27c-8.64941 2.24023 -16.5 6.2207 -23.3193 11.5801l-160.45 -53.6797c-4.18066 -1.40039 -8.7207 0.860352 -10.1201 5.0498l-5.08008 15.1699c-1.40039 4.18066 0.860352 8.7207 5.0498 10.1201
l150.45 50.3398c-2.87012 7.16992 -4.54004 14.9404 -4.54004 23.1504c0 35.3496 28.6504 64 64 64c29.3203 0 53.7695 -19.8301 61.3398 -46.7305l138.42 46.3105c4.18066 1.40039 8.7207 -0.860352 10.1201 -5.0498l5.08008 -15.1699
c1.40039 -4.18066 -0.860352 -8.7207 -5.0498 -10.1201l-148.29 -49.6201c-5.91016 -22.2305 -23.3301 -39.5898 -45.6201 -45.3604v-354.26h200zM288 384c0 -17.6396 14.3604 -32 32 -32s32 14.3604 32 32s-14.3604 32 -32 32s-32 -14.3604 -32 -32zM141.35 248.88
l109.051 -175.97c3.86914 -5.78027 6.08984 -12.7197 5.50977 -19.6406c-5.46973 -65.6699 -60.6504 -117.27 -127.91 -117.27s-122.44 51.5996 -127.91 117.27c-0.580078 6.9209 1.64062 13.8604 5.50977 19.6406l109.051 175.97
c3.16992 4.74023 8.25977 7.12012 13.3496 7.12012s10.1797 -2.37012 13.3496 -7.12012zM128 -32c41.2803 0 77 26.7695 90.4199 64h-181.2c13.2305 -36.8701 49.2002 -64 90.7803 -64zM37.7305 64h181.25l-90.9404 145.76z" />
    <glyph glyph-name="balance-scale-right" unicode="&#xf516;" horiz-adv-x="640" 
d="M634.4 72.9102c3.86914 -5.78027 6.08008 -12.7197 5.50977 -19.6406c-5.45996 -65.6699 -60.6406 -117.27 -127.91 -117.27c-67.2598 0 -122.44 51.5996 -127.91 117.27c-0.580078 6.9209 1.64062 13.8604 5.50977 19.6406l109.051 175.97
c3.16992 4.74023 8.25977 7.12012 13.3496 7.12012s10.1797 -2.37012 13.3496 -7.12012zM511.96 209.76l-90.9404 -145.76h181.25zM512 -32c41.5801 0 77.5498 27.1299 90.7803 64h-181.2c13.4199 -37.2305 49.1396 -64 90.4199 -64zM529.89 285.21
c-1.40918 -4.19043 -5.93945 -6.4502 -10.1201 -5.0498l-160.449 53.6797c-6.82031 -5.35938 -14.6807 -9.33984 -23.3203 -11.5801v-378.26c0 -4.41992 -3.58008 -8 -8 -8h-224c-4.41992 0 -8 3.58008 -8 8v16c0 4.41992 3.58008 8 8 8h200v354.26
c-22.29 5.78027 -39.71 23.1299 -45.6201 45.3604l-148.29 49.6201c-4.18945 1.39941 -6.4502 5.92969 -5.0498 10.1201l5.08008 15.1699c1.39941 4.18945 5.92969 6.4502 10.1201 5.0498l138.42 -46.3105c7.57031 26.9004 32.0195 46.7305 61.3398 46.7305
c35.3496 0 64 -28.6504 64 -64c0 -8.20996 -1.66992 -15.9805 -4.54004 -23.1504l150.46 -50.3496c4.19043 -1.40039 6.4502 -5.92969 5.0498 -10.1201zM320 352c17.6396 0 32 14.3604 32 32s-14.3604 32 -32 32s-32 -14.3604 -32 -32s14.3604 -32 32 -32zM255.91 181.27
c-5.46973 -65.6699 -60.6504 -117.27 -127.91 -117.27s-122.44 51.5996 -127.91 117.27c-0.580078 6.9209 1.64062 13.8604 5.50977 19.6406l109.051 175.97c3.16992 4.74023 8.25977 7.12012 13.3496 7.12012s10.1797 -2.37988 13.3496 -7.12012l109.051 -175.97
c3.86914 -5.78027 6.08984 -12.7197 5.50977 -19.6406zM127.96 337.76l-90.9404 -145.76h181.25zM37.5801 160c13.4199 -37.2305 49.1396 -64 90.4199 -64c41.5801 0 77.5498 27.1299 90.7803 64h-181.2z" />
    <glyph glyph-name="robot" unicode="&#xf544;" horiz-adv-x="640" 
d="M192 32v32h64v-32h-64zM576 224c17.6611 0 32 -14.3389 32 -32v-128c0 -17.6611 -14.3389 -32 -32 -32h-32c0 -52.9834 -43.0166 -96 -96 -96h-256c-52.9834 0 -96 43.0166 -96 96h-32c-17.6611 0 -32 14.3389 -32 32v128c0 17.6611 14.3389 32 32 32h32v32
c0 52.9834 43.0166 96 96 96h112v80c0 8.83105 7.16895 16 16 16s16 -7.16895 16 -16v-80h112c52.9834 0 96 -43.0166 96 -96v-32h32zM96 64v128h-32v-128h32zM512 32v224c0 35.3223 -28.6777 64 -64 64h-256c-35.3223 0 -64 -28.6777 -64 -64v-224
c0.103516 -35.2744 28.7256 -63.8965 64 -64h256c35.2744 0.103516 63.8965 28.7256 64 64zM576 64v128h-32v-128h32zM416 256c35.3037 -0.0400391 63.96 -28.6963 64 -64c0 -35.3223 -28.6777 -64 -64 -64s-64 28.6777 -64 64s28.6777 64 64 64zM416 160
c0.00976562 0 0.0185547 -0.000976562 0.0283203 -0.000976562c17.6455 0 31.9717 14.3262 31.9717 31.9717v0.0292969c0 17.6611 -14.3389 32 -32 32s-32 -14.3389 -32 -32s14.3389 -32 32 -32zM384 32v32h64v-32h-64zM288 32v32h64v-32h-64zM224 256
c35.3037 -0.0400391 63.96 -28.6963 64 -64c0 -35.3223 -28.6777 -64 -64 -64s-64 28.6777 -64 64s28.6777 64 64 64zM224 160c0.00976562 0 0.0185547 -0.000976562 0.0283203 -0.000976562c17.6455 0 31.9717 14.3262 31.9717 31.9717v0.0292969
c0 17.6611 -14.3389 32 -32 32s-32 -14.3389 -32 -32s14.3389 -32 32 -32z" />
    <glyph glyph-name="grin-tongue-wink" unicode="&#xf58b;" horiz-adv-x="496" 
d="M248 440c137 0 248 -111 248 -248c0 -121.1 -86.7998 -221.8 -201.6 -243.5c-13.8008 -7.7002 -29.5 -12.5 -46.4004 -12.5s-32.5996 4.7998 -46.4004 12.5c-114.8 21.7002 -201.6 122.4 -201.6 243.5c0 137 111 248 248 248zM312 32h0.0996094v32
c-19.0996 9.5 -22.7998 12.2002 -32 12.2002h-0.299805c-9.7998 -0.100586 -18.2002 -7 -20.3994 -16.6006l-2.7002 -11.5996c-2.10059 -9.2002 -15.2002 -9.2002 -17.2998 0l-2.7002 11.5996c-2.2002 9.60059 -10.6006 16.5 -20.4004 16.6006h-0.299805
c-9.2998 0 -13.0996 -2.7002 -32 -12.2002v-31c0 -35.2002 28 -64.5 63.0996 -65c35.8008 -0.5 64.9004 28.4004 64.9004 64zM336.6 -4.7998c75 33.8994 127.4 109.3 127.4 196.8c0 119.1 -96.9004 216 -216 216s-216 -96.9004 -216 -216
c0 -87.5 52.4004 -162.9 127.4 -196.8c-4.7002 11.3994 -7.40039 23.7998 -7.40039 36.7998v13.5c-24.7998 16.2002 -43.5 38 -47.7998 63.7998c-1.90039 11.6006 9.09961 21.6006 20.7002 17.9004c30.1992 -9.7002 75.0996 -15.2002 123.1 -15.2002
s92.9004 5.5 123.1 15.2998c11.7002 3.7002 22.7002 -6.2998 20.7002 -17.8994c-4.39941 -25.8008 -23.0996 -47.7002 -47.7998 -63.8008v-13.5996c0 -13.0996 -2.7002 -25.5 -7.40039 -36.7998zM344 320c44.2002 0 80 -35.7998 80 -80s-35.7998 -80 -80 -80
s-80 35.7998 -80 80s35.7998 80 80 80zM344 192c26.5 0 48 21.5 48 48s-21.5 48 -48 48s-48 -21.5 -48 -48s21.5 -48 48 -48zM152 268c25.7002 0 55.9004 -16.9004 59.7998 -42.0996c0.799805 -5 -1.7002 -10 -6.09961 -12.4004
c-5.7002 -3.09961 -11.2002 -0.599609 -13.7002 1.59961l-9.5 8.5c-14.7998 13.2002 -46.2002 13.2002 -61 0l-9.5 -8.5c-3.7998 -3.39941 -9.2998 -4 -13.7002 -1.59961c-4.39941 2.40039 -6.89941 7.40039 -6.09961 12.4004
c3.89941 25.1992 34.0996 42.0996 59.7998 42.0996zM344 264c13.2998 0 24 -10.7002 24 -24s-10.7002 -24 -24 -24s-24 10.7002 -24 24s10.7002 24 24 24z" />
    <glyph glyph-name="atom" unicode="&#xf5d2;" horiz-adv-x="448" 
d="M224 248c30.8906 -0.0371094 55.9639 -25.1094 56.002 -56c0 -30.9072 -25.0928 -56 -56 -56s-56 25.0928 -56 56c0 30.9062 25.0918 55.999 55.998 56zM224 168c13.2441 0.00292969 23.9971 10.7559 24.001 24c0 13.2461 -10.7539 24 -24 24s-24 -10.7539 -24 -24
s10.7529 -24 23.999 -24zM412.724 192c15.5635 -20.2656 26.7197 -40.625 31.9072 -60c6.03125 -22.6094 3.9375 -43.4219 -6.09375 -60.1875c-15.8135 -26.5 -49.5957 -39.5156 -93.0029 -39.5156c-6.375 0 -13.5 1.14062 -20.25 1.70312
c-23.251 -59.9219 -59.5957 -98 -101.284 -98s-78.0332 38.0781 -101.284 98c-6.75 -0.5625 -13.875 -1.70312 -20.25 -1.70312c-43.4385 0 -77.1895 13.0156 -93.0342 39.5156c-10 16.7656 -12.0938 37.5781 -6.0625 60.1875c5.1875 19.375 16.3438 39.7344 31.9072 60
c-15.5635 20.2656 -26.7197 40.625 -31.9072 60c-6.03125 22.6094 -3.9375 43.4219 6.09375 60.1875c18.1885 30.5156 60.3145 42.9688 113.503 38.4375c23.2197 59.5625 59.4707 97.375 101.034 97.375s77.8145 -37.8125 101.065 -97.375
c53.1572 4.53125 95.2832 -7.9375 113.503 -38.4375c10 -16.7656 12.0938 -37.5781 6.0625 -60.1875c-5.1875 -19.375 -16.3438 -39.7344 -31.9072 -60zM36.9014 88.2188c10.2188 -17.0625 37.9072 -25.5312 75.627 -23.5938
c-5.70508 20.623 -9.99414 42.2051 -12.5938 63.9375c-15.4609 11.8438 -29.7432 24.5264 -43.3145 38.4531c-10.7188 -14.8906 -18.626 -29.5781 -22.3125 -43.2969c-3.84375 -14.25 -2.9375 -26.2031 2.59375 -35.5zM96.4346 173.266
c-0.21875 6.21875 -0.46875 12.3906 -0.46875 18.7344s0.25 12.5156 0.46875 18.7344c-6.84473 -6.19238 -13.2197 -12.4375 -19.126 -18.7344c5.90625 -6.28613 12.2812 -12.5312 19.126 -18.7344zM99.9346 255.438c2.59961 21.7119 6.88867 43.2734 12.5938 63.875
c-3.53125 0.171875 -7.125 0.453125 -10.4375 0.453125c-32.4385 0 -55.9395 -8.51562 -65.1582 -23.9844c-5.5625 -9.29688 -6.46875 -21.25 -2.625 -35.5c3.68652 -13.7188 11.5938 -28.4062 22.3125 -43.2969c13.5635 13.9346 27.8467 26.6172 43.3145 38.4531z
M311.689 280.938c-1.875 9.64062 -5.68848 25.0938 -8.53125 34.5c-12.3438 -2.25879 -24.7246 -5.25293 -36.5635 -8.8125c6.4375 -3.23438 12.8447 -6.5625 19.2822 -10.1406c8.9375 -4.96875 17.4375 -10.2188 25.8125 -15.5469zM224 416
c-24.0635 0 -49.5322 -26.0156 -68.1895 -69.9531c23.3438 -4.79004 46.4902 -11.7451 68.1895 -20.3594c21.7031 8.60156 44.8486 15.5508 68.1895 20.3438c-18.6572 43.9375 -44.126 69.9688 -68.1895 69.9688zM144.842 315.438
c-2.84473 -9.40625 -6.65625 -24.8594 -8.53125 -34.5c8.375 5.32812 16.875 10.5781 25.8125 15.5469c6.40625 3.57812 12.8447 6.90625 19.251 10.1406c-11.8271 3.5625 -24.1973 6.55762 -36.5322 8.8125zM136.311 103.062
c2.26367 -11.6348 5.16113 -23.3301 8.53125 -34.5312c12.6201 2.34277 25.2783 5.44434 37.376 9.125c-6.71875 3.375 -13.375 6.10938 -20.0947 9.85938c-8.9375 4.96875 -17.4375 10.2188 -25.8125 15.5469zM224 -32c24.1572 0 49.7197 26.2344 68.4082 70.4844
c-23.4258 4.74414 -46.6475 11.6846 -68.4082 20.3125c-21.7607 -8.62793 -44.9824 -15.5684 -68.4082 -20.3125c18.6885 -44.25 44.251 -70.4844 68.4082 -70.4844zM303.158 68.5469c3.25 10.8281 6.15625 22.2969 8.5625 34.5
c-8.375 -5.3125 -16.9062 -10.5625 -25.8438 -15.5312c-6.6875 -3.75 -13.3447 -6.48438 -20.0635 -9.85938c12.0859 -3.67969 24.7334 -6.77539 37.3447 -9.10938zM317.878 145.938c1.375 14.7188 2.15625 30.0781 2.15625 46.0625s-0.78125 31.3438 -2.15625 46.0625
c-15.2188 11.0947 -31.0449 21.2441 -47.5645 30.4844c-14.9072 8.33008 -30.4775 15.9648 -46.3135 22.6875c-15.8359 -6.72266 -31.4062 -14.3574 -46.3135 -22.6875c-16.5195 -9.24023 -32.3457 -19.3896 -47.5645 -30.4844
c-1.375 -14.7188 -2.15625 -30.0781 -2.15625 -46.0625s0.78125 -31.3438 2.15625 -46.0625c15.2188 -11.0947 31.0449 -21.2441 47.5645 -30.4844c14.917 -8.30469 30.5 -15.915 46.3447 -22.6094c15.8242 6.69531 31.3857 14.3047 46.2822 22.6094
c16.5195 9.24023 32.3457 19.3896 47.5645 30.4844zM345.94 319.766c-3.34375 0 -6.9375 -0.265625 -10.4375 -0.453125c5.68164 -20.6074 9.95898 -42.168 12.5625 -63.875c15.4717 -11.8311 29.7549 -24.5146 43.3145 -38.4531
c10.7188 14.9062 18.624 29.5781 22.3125 43.3125c3.84375 14.25 2.9375 26.1875 -2.59375 35.5c-9.25 15.4531 -32.751 23.9688 -65.1582 23.9688zM351.565 210.734c0.21875 -6.21875 0.46875 -12.3906 0.46875 -18.7344s-0.25 -12.5156 -0.46875 -18.7344
c6.84473 6.19238 13.2197 12.4375 19.126 18.7344c-5.90625 6.28613 -12.2812 12.5312 -19.126 18.7344zM411.067 88.2188c5.5625 9.29688 6.46875 21.25 2.625 35.5c-3.68848 13.7188 -11.5938 28.4062 -22.3125 43.2969
c-13.5635 -13.9346 -27.8467 -26.6172 -43.3145 -38.4531c-2.59961 -21.7217 -6.88867 -43.2939 -12.5938 -63.9062c37.751 -1.96875 65.4395 6.5 75.5957 23.5625z" />
    <glyph glyph-name="atom-alt" unicode="&#xf5d3;" horiz-adv-x="448" 
d="M394.062 191.999c55.5615 -84.4844 71.1553 -164.233 32.8438 -202.468c-14.4062 -14.3438 -34.5 -21.5312 -59.0312 -21.5312c-21.1865 0 -45.5615 5.34375 -72.4365 16.0625c-23.1875 9.25 -47.3115 22.7188 -71.4365 38.5781
c-24.1562 -15.875 -48.2812 -29.3281 -71.4365 -38.5781c-26.875 -10.7188 -51.3125 -16.0625 -72.4375 -16.0625c-24.5615 0 -44.6553 7.1875 -59.0303 21.5312c-38.3125 38.2344 -22.7188 117.983 32.8125 202.468c-55.5312 84.4834 -71.125 164.233 -32.8125 202.468
c26.8125 26.7188 73.4365 28.6094 131.468 5.46875c23.1553 -9.25 47.2803 -22.7188 71.4365 -38.5781c24.125 15.875 48.249 29.3281 71.4365 38.5781c58.124 23.1719 104.749 21.2031 131.468 -5.46875c38.3115 -38.2344 22.7178 -117.984 -32.8438 -202.468z
M195.751 42.6875c-23.1719 17.2852 -44.6729 35.7871 -65.1865 56.0771c-20.5596 20.4268 -39.3174 41.8486 -56.875 64.9688c-42.8115 -69.25 -52.874 -128.687 -29.9365 -151.577c16.9375 -16.8281 52.1865 -16.25 96.874 1.60938
c17.8438 7.14062 36.4365 17.3594 55.124 28.9219zM73.7207 220.265c34.96 46.1914 75.5479 86.4541 122.03 121.046c-18.6875 11.5625 -37.249 21.7812 -55.124 28.9219c-23.0625 9.20312 -43.5938 13.8125 -60.4375 13.8125c-15.7803 0 -28.249 -4.0625 -36.4053 -12.2031
c-22.9688 -22.9062 -12.875 -82.3281 29.9365 -151.577zM224.001 61.2656c25.3242 18.2637 48.6855 38.1201 70.749 60.1084c22.1084 21.999 42.0713 45.3135 60.4365 70.6094c-18.3574 25.3027 -38.3213 48.6172 -60.4365 70.6084
c-22.0654 21.9854 -45.4277 41.8418 -70.749 60.1094c-25.3379 -18.2588 -48.7109 -38.1162 -70.7803 -60.1094c-22.1152 -21.9834 -42.0693 -45.2988 -60.4062 -70.6084c18.3457 -25.3037 38.2988 -48.6182 60.4062 -70.6094
c22.0771 -21.9844 45.4492 -41.8398 70.7803 -60.1084zM280.125 191.999v-0.126953c0 -30.9766 -25.1484 -56.125 -56.124 -56.125c-30.9766 0 -56.125 25.1484 -56.125 56.125c0 30.9756 25.1484 56.127 56.125 56.127c30.9307 -0.00585938 56.0498 -25.085 56.124 -56z
M248.032 191.999c0 13.2715 -10.7754 24.0947 -24.0469 24.0947s-24.0469 -10.7754 -24.0469 -24.0469c0 -13.2725 10.7754 -24.0469 24.0469 -24.0469c0.00488281 0 0.00976562 -0.000976562 0.015625 -0.000976562h0.0283203c13.2471 0 24.001 10.7539 24.0029 24z
M252.22 341.311c23.1885 -17.2773 44.7002 -35.7793 65.2178 -56.0781c20.5488 -20.4258 39.2969 -41.8486 56.8428 -64.9678c42.8125 69.249 52.9062 128.687 29.9375 151.577c-16.8438 16.7969 -52.125 16.2188 -96.8428 -1.60938
c-17.875 -7.14062 -36.4375 -17.375 -55.1553 -28.9219zM374.28 163.733c-17.5547 -23.1123 -36.3018 -44.5342 -56.8428 -64.9688c-20.5322 -20.2832 -42.043 -38.7842 -65.2178 -56.0771c18.6865 -11.5625 37.2803 -21.7812 55.1553 -28.9219
c44.6865 -17.8594 79.9678 -18.4219 96.8428 -1.60938c22.9688 22.8906 12.875 82.3271 -29.9375 151.577z" />
    <glyph glyph-name="shapes" unicode="&#xf61f;" 
d="M480 160c17.6699 0 32 -14.3301 32 -32v-160c0 -17.6699 -14.3301 -32 -32 -32h-160c-17.6699 0 -32 14.3301 -32 32v160c0 17.6699 14.3301 32 32 32h160zM480 -32v160h-160v-160h160zM128 192c70.6904 0 128 -57.3096 128 -128s-57.3096 -128 -128 -128
s-128 57.3096 -128 128s57.3096 128 128 128zM128 -32c52.9404 0 96 43.0703 96 96c0 52.9404 -43.0596 96 -96 96c-52.9297 0 -96 -43.0596 -96 -96c0 -52.9297 43.0703 -96 96 -96zM506.98 246.86c14.2598 -24.3799 -3.56055 -54.8604 -32.0703 -54.8604h-213.82
c-28.5098 0 -46.3301 30.4805 -32.0703 54.8604l106.91 182.85c7.12012 12.1904 19.6006 18.29 32.0703 18.29s24.9502 -6.09961 32.0703 -18.29zM479.38 226.47c1.21973 2.12012 0.350586 3.60059 -0.0195312 4.23047l-106.91 182.859
c-0.950195 1.62012 -2.44043 2.44043 -4.4502 2.44043s-3.5 -0.820312 -4.4502 -2.44043l-106.91 -182.859c-0.370117 -0.629883 -1.22949 -2.11035 -0.0195312 -4.23047c0.939453 -1.63965 2.4502 -2.46973 4.46973 -2.46973h213.82
c2.01953 0 3.53027 0.830078 4.46973 2.46973z" />
    <glyph glyph-name="envelope-open-dollar" unicode="&#xf657;" 
d="M494.59 283.48c11.0303 -9.11035 17.4102 -22.6807 17.4102 -36.9902v-262.49c0 -26.5098 -21.4902 -48 -48 -48h-416c-26.5098 0 -48 21.4902 -48 48v262.52c0.00390625 14.9326 6.80957 28.2656 17.5195 37.0703c1.73047 1.41992 21.9609 17.7197 46.4805 37.4297
v30.9805c0 17.6699 14.3301 32 32 32h46.46c4.09961 3.26953 7.66992 6.12988 10.2002 8.13965c22.7002 18.1406 60.1299 55.8604 103.34 55.8604c43.4404 0 81.2305 -38.1904 103.33 -55.8604c2.49023 -1.97949 6.07031 -4.83008 10.2002 -8.13965h46.4697
c17.6699 0 32 -14.3301 32 -32v-30.9902c24.4004 -19.6201 44.6104 -35.8994 46.5898 -37.5293zM256 416c-21.6797 0 -44.5703 -16.7305 -63.0996 -32h126.239c-18.5 15.2803 -41.3701 32 -63.1396 32zM96 352v-173.34c32.3496 -26.0098 65.2998 -52.4404 86.5898 -69.3398
c16.8506 -13.4404 50.2002 -45.7002 73.4102 -45.3203c23.2197 -0.370117 56.5596 31.8799 73.4102 45.3096c21.29 16.9004 54.2598 43.3408 86.5898 69.3408v173.35h-320zM32 246.52v-16.3291c9.49023 -7.65039 20.4697 -16.5 32 -25.7803v75.5498
c-14.54 -11.7002 -24.9199 -20.0596 -26.1602 -21.0801c-3.70996 -3.0498 -5.83984 -7.55957 -5.83984 -12.3604zM480 -16v205.1c-42.7598 -34.4395 -99.2803 -79.8994 -130.69 -104.83c-21.04 -16.7998 -56.8594 -52.5195 -93.3096 -52.2598
c-36.5801 -0.269531 -72.8301 35.9004 -93.3203 52.2598c-31.3701 24.9004 -87.9297 70.3809 -130.68 104.82v-205.09c0 -8.82031 7.17969 -16 16 -16h416c8.82031 0 16 7.17969 16 16zM480 230.19v16.2998c0 4.79004 -2.11035 9.2793 -5.7998 12.3301
c-1.40039 1.14941 -11.7598 9.5 -26.2002 21.1201v-75.54c11.7305 9.44922 22.3799 18.04 32 25.79zM228.91 207.42c-18.6006 5.58008 -31.5801 23.4199 -31.5801 43.3896c0 24.5205 19.0498 44.4404 42.6699 45.0703v16.1201c0 4.41992 3.58008 8 8 8h16
c4.41992 0 8 -3.58008 8 -8v-16.29c11.29 -0.580078 22.2695 -4.51953 31.3701 -11.3496c3.89941 -2.93066 4.09961 -8.77051 0.570312 -12.1406l-11.75 -11.21c-2.77051 -2.63965 -6.89062 -2.75977 -10.1309 -0.729492
c-3.85938 2.42969 -8.25977 3.71973 -12.8193 3.71973h-28.1104c-6.5 0 -11.7998 -5.91992 -11.7998 -13.1904c0 -5.94922 3.61035 -11.1797 8.76953 -12.7295l45 -13.5c18.6006 -5.58008 31.5801 -23.4199 31.5801 -43.3896
c0 -24.5303 -19.0498 -44.4404 -42.6699 -45.0703v-16.1201c0 -4.41992 -3.58008 -8 -8 -8h-16c-4.41992 0 -8 3.58008 -8 8v16.29c-11.29 0.580078 -22.2695 4.51953 -31.3701 11.3496c-3.89941 2.93066 -4.09961 8.77051 -0.569336 12.1406l11.75 11.21
c2.76953 2.63965 6.88965 2.75977 10.1299 0.729492c3.85938 -2.42969 8.25977 -3.71973 12.8193 -3.71973h28.1104c6.5 0 11.7998 5.91992 11.7998 13.1904c0 5.94922 -3.60938 11.1797 -8.76953 12.7295z" />
    <glyph glyph-name="envelope-open-text" unicode="&#xf658;" 
d="M352 200c0 -4.41992 -3.58008 -8 -8 -8h-176c-4.41992 0 -8 3.58008 -8 8v16c0 4.41992 3.58008 8 8 8h176c4.41992 0 8 -3.58008 8 -8v-16zM168 256c-4.41992 0 -8 3.58008 -8 8v16c0 4.41992 3.58008 8 8 8h176c4.41992 0 8 -3.58008 8 -8v-16
c0 -4.41992 -3.58008 -8 -8 -8h-176zM494.59 283.48c11.0303 -9.11035 17.4102 -22.6807 17.4102 -36.9902v-262.49c0 -26.5098 -21.4902 -48 -48 -48h-416c-26.5098 0 -48 21.4902 -48 48v262.52c0.00390625 14.9326 6.80957 28.2656 17.5195 37.0703
c1.73047 1.41992 21.9609 17.7197 46.4805 37.4297v30.9805c0 17.6699 14.3301 32 32 32h46.46c4.09961 3.26953 7.66992 6.12988 10.2002 8.13965c22.7002 18.1406 60.1299 55.8604 103.34 55.8604c43.4404 0 81.2305 -38.1904 103.33 -55.8604
c2.49023 -1.97949 6.07031 -4.83008 10.2002 -8.13965h46.4697c17.6699 0 32 -14.3301 32 -32v-30.9902c24.4004 -19.6201 44.6104 -35.8994 46.5898 -37.5293zM256 416c-21.6797 0 -44.5703 -16.7305 -63.0996 -32h126.239c-18.5 15.2803 -41.3701 32 -63.1396 32zM96 352
v-173.34c32.3496 -26.0098 65.2998 -52.4404 86.5898 -69.3398c16.8506 -13.4404 50.2002 -45.7002 73.4102 -45.3203c23.2197 -0.370117 56.5596 31.8799 73.4102 45.3096c21.29 16.9004 54.2598 43.3408 86.5898 69.3408v173.35h-320zM32 246.52v-16.3291
c9.49023 -7.65039 20.4697 -16.5 32 -25.7803v75.5498c-14.54 -11.7002 -24.9199 -20.0596 -26.1602 -21.0801c-3.70996 -3.0498 -5.83984 -7.55957 -5.83984 -12.3604zM480 -16v205.1c-42.7598 -34.4395 -99.2803 -79.8994 -130.69 -104.83
c-21.04 -16.7998 -56.8594 -52.5195 -93.3096 -52.2598c-36.5801 -0.269531 -72.8301 35.9004 -93.3203 52.2598c-31.3701 24.9004 -87.9297 70.3809 -130.68 104.82v-205.09c0 -8.82031 7.17969 -16 16 -16h416c8.82031 0 16 7.17969 16 16zM480 230.19v16.2998
c0 4.79004 -2.11035 9.2793 -5.7998 12.3301c-1.40039 1.14941 -11.7598 9.5 -26.2002 21.1201v-75.54c11.7305 9.44922 22.3799 18.04 32 25.79z" />
    <glyph glyph-name="bahai" unicode="&#xf666;" 
d="M496.25 245.48c17.54 -2.46094 21.6797 -26.2705 6.03027 -34.6709l-98.1602 -52.6592l74.4795 -83.54c10.9199 -12.2402 1.73047 -30.9307 -13.2793 -30.9307c-1.32031 0 -2.68066 0.150391 -4.07031 0.450195l-108.57 23.6504l4.11035 -112.55
c0.429688 -11.6504 -8.86035 -19.2207 -18.4102 -19.2207c-5.16016 0 -10.3896 2.20996 -14.2002 7.18066l-68.1797 88.8994l-68.1797 -88.8994c-3.81055 -4.9707 -9.04004 -7.18066 -14.2002 -7.18066c-9.54004 0 -18.8398 7.57031 -18.4102 19.2207l4.11035 112.55
l-108.57 -23.6504c-1.40039 -0.30957 -2.75 -0.450195 -4.07031 -0.450195c-15 0 -24.1992 18.6807 -13.2793 30.9307l74.4893 83.5293l-98.1592 52.6602c-15.6406 8.40039 -11.5 32.21 6.0293 34.6699l110 15.4404l-41.8193 104.34
c-5.26074 13.1201 4.97949 25.5498 16.8896 25.5498c3.18945 0 6.50977 -0.899414 9.68945 -2.91992l94.04 -59.8896l34.0908 107.189c2.70996 8.55078 10.0293 12.8203 17.3496 12.8203s14.6396 -4.26953 17.3496 -12.8203l34.1006 -107.18l94.04 59.8896
c3.16992 2.02051 6.49023 2.91992 9.68945 2.91992c11.9102 0 22.1504 -12.4395 16.8906 -25.5498l-41.8203 -104.34zM389.37 186.43l61.6797 33.0801l-69.1094 9.7002l-40.1807 5.63965l15.2705 38.1104l26.2695 65.5498l-59.0801 -37.6201l-34.3496 -21.8701
l-12.4502 39.1504l-21.4199 67.3398l-21.4102 -67.3301l-12.4502 -39.1494l-34.3496 21.8701l-59.0801 37.6191l26.2705 -65.5498l15.2695 -38.1094l-40.1797 -5.64062l-69.1104 -9.7002l61.6699 -33.0898l35.8506 -19.2393l-27.2002 -30.5107l-46.79 -52.4795
l68.21 14.8594l39.6494 8.64062l-1.5 -41.1104l-2.58008 -70.71l42.8301 55.8506l24.9004 32.4697l24.9004 -32.4697l42.8301 -55.8506l-2.58008 70.71l-1.5 41.1104l39.6494 -8.64062l68.21 -14.8594l-46.79 52.4795l-27.2002 30.5107z" />
    <glyph glyph-name="lightbulb-on" unicode="&#xf672;" horiz-adv-x="640" 
d="M320 384c8.83105 0 16 -7.16895 16 -16s-7.16895 -16 -16 -16c-44.1299 -0.0498047 -79.9502 -35.8701 -80 -80c0 -8.83105 -7.16895 -16 -16 -16s-16 7.16895 -16 16c0.0771484 61.7783 50.2217 111.923 112 112zM320 448
c0.0351562 0 0.0351562 -0.0859375 0.0712891 -0.0859375c97.082 0 175.9 -78.8184 175.9 -175.9c0 -44.3271 -16.4326 -84.8457 -43.5312 -115.794c-25.4404 -29.0293 -50.1904 -76.5 -52.4404 -92.2197l-0.0595703 -75.1699
c-0.0205078 -3.25488 -1.01465 -6.30078 -2.69043 -8.83008l-24.5 -36.8604c-2.86719 -4.31152 -7.76074 -7.13965 -13.3223 -7.13965h-0.0175781h-78.8506c-5.55566 0.00488281 -10.4443 2.83105 -13.3096 7.13965l-24.5 36.8408
c-1.69043 2.52148 -2.6875 5.56934 -2.69043 8.8291l-0.0595703 75.1904c-2.16016 15.3096 -26.7803 63 -52.4404 92.2197c-27.0908 30.8213 -43.5596 71.3301 -43.5596 115.55c-0.120117 92.6807 73.0596 176.23 176 176.23zM367.94 -6.30957l0.0292969 6.30957h-95.9102
v-6.30957l17.0605 -25.6904h61.7197zM368 32v32h-96.0596l0.0595703 -32h96zM428.41 177.31c22.1553 25.2842 35.5879 58.4658 35.5898 94.6904c0 79.4102 -64.5898 144 -144 144c-83.5596 0 -144.12 -67 -143.94 -144
c0 -0.0488281 0.0273438 -0.165039 0.0273438 -0.212891c0 -36.1699 13.4131 -69.2314 35.5332 -94.4775c14 -15.9492 36.3203 -48.0791 50.5996 -81.29h115.62c14.25 33.2002 36.5703 65.3408 50.5703 81.29zM96 272c0 -8.83105 -7.16895 -16 -16 -16h-64
c-8.83105 0 -16 7.16895 -16 16s7.16895 16 16 16h64c8.83105 0 16 -7.16895 16 -16zM528 384c-8.83008 0 -16.0186 7.16016 -16.0186 15.9902c0 6.26562 3.6084 11.6943 8.8584 14.3193l64 32c2.15137 1.07617 4.6084 1.70117 7.17578 1.70117
c8.83105 0 16.001 -7.16992 16.001 -16.001c0 -6.26465 -3.60742 -11.6934 -8.85645 -14.3193l-64 -32c-2.15332 -1.07129 -4.5957 -1.68457 -7.16016 -1.69043zM624 288c8.83105 0 16 -7.16895 16 -16s-7.16895 -16 -16 -16h-64c-8.83105 0 -16 7.16895 -16 16
s7.16895 16 16 16h64zM119.16 414.31c5.25 -2.625 8.84277 -8.04492 8.84277 -14.3096c0 -8.83105 -7.16895 -16 -16 -16h-0.00292969c-2.56445 0.00585938 -5.00684 0.619141 -7.16016 1.69043l-64 32c-5.24902 2.62598 -8.8252 8.03613 -8.8252 14.2998
c0 8.83203 7.16992 16.002 16.001 16.002c2.56641 0 4.99316 -0.606445 7.14453 -1.68262zM599.16 126.31c5.25195 -2.62598 8.83008 -8.03809 8.83008 -14.3057c0 -8.83301 -7.17188 -16.0049 -16.0059 -16.0049c-2.56641 0 -4.99316 0.605469 -7.14453 1.68066l-64 32
c-5.25195 2.62695 -8.83008 8.03906 -8.83008 14.3057c0 8.83398 7.17188 16.0059 16.0059 16.0059c2.56641 0 4.99316 -0.605469 7.14453 -1.68164zM112 160c0.0078125 0 0.0302734 0.00976562 0.0380859 0.00976562c8.83105 0 16 -7.16992 16 -16
c0 -6.27344 -3.61719 -11.708 -8.87793 -14.3301l-64 -32c-2.15137 -1.0752 -4.6084 -1.7002 -7.17578 -1.7002c-8.83398 0 -16.0059 7.17188 -16.0059 16.0059c0 6.26758 3.60938 11.6982 8.86133 14.3242l64 32c2.15332 1.07129 4.5957 1.68457 7.16016 1.69043z" />
    <glyph glyph-name="dog" unicode="&#xf6d3;" horiz-adv-x="576" 
d="M528 352c8.83105 0 16 -7.16895 16 -16v-64c0 -35.3223 -28.6777 -64 -64 -64h-32v-240c0 -17.6611 -14.3389 -32 -32 -32h-64c-17.6611 0 -32 14.3389 -32 32v96h-96v-96c0 -17.6611 -14.3389 -32 -32 -32h-64c-17.6611 0 -32 14.3389 -32 32v160
c0.0957031 17.5898 5.03906 34.167 13.4697 48.2695c-42.9023 1.32617 -77.377 36.5303 -77.4697 79.7305c0 8.83105 7.16895 16 16 16s16 -7.16895 16 -16c0.0273438 -26.4795 21.5205 -47.9727 48 -48h27.0596c15.1357 10.0713 33.3975 16 52.9238 16h0.0166016h112v176
c0 8.83105 7.16699 16.001 15.9971 16.001c0.0449219 0 0.0888672 -0.000976562 0.132812 -0.000976562c0.00488281 0 0.00976562 0.00292969 0.0136719 0.00292969c4.37793 0 8.33691 -1.81055 11.166 -4.72266l27.2803 -27.2803h69.6299
c10.9102 0 23.7803 -7.91992 28.6201 -17.6904l7.16016 -14.3096h64zM416 -32v197.52l-105.94 26.4805h-118.06c-35.3047 -0.0380859 -63.9619 -28.6953 -64 -64v-160h64v128h160v-128h64zM512 272v48h-67.7803l-16 32h-82.8799l-9.33984 9.33984v-142.859l80 -20v41.5195
h64c17.6611 0 32 14.3389 32 32zM416 320c0 -8.83105 -7.16895 -16 -16 -16s-16 7.16895 -16 16s7.16895 16 16 16s16 -7.16895 16 -16z" />
    <glyph glyph-name="dog-leashed" unicode="&#xf6d4;" horiz-adv-x="576" 
d="M544 336v-64c0 -35.3223 -28.6777 -64 -64 -64h-32v-240c0 -17.6611 -14.3389 -32 -32 -32h-64c-17.6611 0 -32 14.3389 -32 32v96h-96v-96c0 -17.6611 -14.3389 -32 -32 -32h-64c-17.6611 0 -32 14.3389 -32 32v160c0.0908203 17.5869 5.03027 34.1602 13.46 48.2598
c-42.8867 1.3623 -77.3418 36.5527 -77.46 79.7402c0 8.83105 7.16895 16 16 16s16 -7.16895 16 -16c0.0273438 -26.4795 21.5205 -47.9727 48 -48h27.0498c15.1299 10.0713 33.291 15.9434 52.8125 15.9434c0.0136719 0 0.124023 0.0566406 0.137695 0.0566406h79.9404
l-237.061 197.55c-1.75391 1.46777 -2.87012 3.67383 -2.87012 6.1377c0 1.95117 0.707031 3.74316 1.87012 5.13281l10.2305 12.2998c1.46777 1.75391 3.67285 2.87012 6.13672 2.87012c1.95215 0 3.74414 -0.707031 5.13281 -1.87012l248.62 -207.12v161
c0 8.83105 7.16895 16 16 16h0.120117c4.38672 -0.00292969 8.35547 -1.80859 11.2002 -4.71973l27.2793 -27.2803h69.6201c10.9199 0 23.7402 -7.92969 28.6201 -17.6904l7.16016 -14.3096h64c8.83105 0 16 -7.16895 16 -16zM288 192h-96
c-35.3047 -0.0380859 -63.9619 -28.6953 -64 -64v-160h64v128h96v96zM416 165.52l-96 24v-93.5195h32v-128h64v197.52zM512 320h-67.7803l-16 32h-82.8799l-9.33984 9.33984v-142.859l80 -20v41.5195h64c17.6611 0 32 14.3389 32 32v48zM416 320
c0 -8.83105 -7.16895 -16 -16 -16s-16 7.16895 -16 16s7.16895 16 16 16s16 -7.16895 16 -16z" />
    <glyph glyph-name="meteor" unicode="&#xf753;" 
d="M510.973 416.181c-9.8125 -32.3984 -33.8135 -109.177 -58.8135 -167.365c2.90625 -0.890625 5.5 -1.70312 7.90625 -2.39062c8.86914 -2.69629 16.0479 -9.23438 19.5938 -17.6982c1.50879 -3.6709 2.33984 -7.69043 2.33984 -11.9014
c0 -5.20898 -1.27734 -10.1738 -3.52734 -14.499c-22.5938 -43.1924 -81.2207 -149.964 -139.503 -208.246c-35.9854 -35.8984 -85.6328 -58.1064 -140.428 -58.1064c-54.7939 0 -104.5 22.208 -140.485 58.1064c-77.4072 77.3877 -77.4072 203.45 0 280.838
c58.3145 58.2832 165.098 116.972 208.317 139.467c4.28906 2.2998 9.19043 3.60547 14.3936 3.60547c4.23145 0 8.31738 -0.858398 11.9824 -2.41895c8.4668 -3.54785 15.0088 -10.7227 17.7188 -19.5889c0.6875 -2.40527 1.59375 -4.99902 2.40625 -7.9043
c58.502 25.3066 135.098 49.0977 167.379 58.8916c2.23145 0.663086 4.59375 1.01855 7.03906 1.01855c13.6445 0 24.7217 -11.0771 24.7217 -24.7217c0 -2.46484 -0.368164 -4.83887 -1.04102 -7.08594zM476.065 412.072
c-40.4072 -12.3877 -115.315 -36.585 -166.691 -60.6729l-16.9062 -7.9043l-5.21875 17.9961c-2.78125 9.7002 -5.375 18.4014 -7.375 24.9932c-40.626 -22.291 -144.129 -79.0742 -199.224 -134.17c-64.9082 -64.875 -64.9082 -170.553 0 -235.537
c64.9072 -64.9844 170.723 -64.8906 235.599 0c55.127 55.0801 111.909 158.556 133.723 200.451c-6.00098 0.796875 -14.7197 3.39062 -24.4072 6.20215l-18 5.18652l7.90625 16.9014c23.9062 50.9883 48.2822 126.173 60.5947 166.554zM327.875 136.045
c0 -70.5762 -57.4082 -127.969 -128.003 -127.969c-70.6279 0 -127.97 57.3408 -127.97 127.969c0 70.6289 57.3418 127.97 127.97 127.97c70.5947 0 128.097 -57.4863 128.003 -127.97v0zM295.874 135.952c0 52.9854 -43.0176 96.0273 -96.002 96.0273
c-52.9854 0 -96.0029 -43.0166 -96.0029 -96.002s43.0176 -96.0029 96.0029 -96.0029c53.001 0 96.0957 43.084 96.002 95.9766v0.000976562zM207.872 168.038c0 -13.2461 -10.7539 -24.0078 -24.001 -24.0078c-13.2461 0 -24 10.7549 -24 24.001s10.7539 24.001 24 24.001
h0.0478516c13.2207 0 23.9541 -10.7334 23.9541 -23.9541c0 -0.0136719 -0.000976562 -0.0263672 -0.000976562 -0.0400391v0zM239.873 95.9609c0 -8.83105 -7.16992 -16.0039 -16.001 -16.0039c-8.83008 0 -16 7.16895 -16 16s7.16992 16 16 16
c8.81738 -0.0263672 15.9717 -7.17969 16.001 -15.9961v0z" />
    <glyph glyph-name="stars" unicode="&#xf762;" 
d="M509.053 228.962c1.75 -0.876953 2.95215 -2.68164 2.95215 -4.77051c0 -2.08984 -1.20215 -3.90039 -2.95215 -4.77734l-39.7129 -16.5713l-16.5586 -39.7363c-0.870117 -1.75684 -2.67578 -2.96582 -4.76758 -2.96582s-3.90332 1.20898 -4.77344 2.96582
l-16.5605 39.7363l-39.7109 16.5713c-1.75 0.876953 -2.95215 2.68164 -2.95215 4.77051c0 2.08984 1.20215 3.90039 2.95215 4.77734l39.7109 16.5693l16.5605 39.7383c0.871094 1.75586 2.67578 2.96387 4.76758 2.96387c2.09082 0 3.90234 -1.20801 4.77344 -2.96387
l16.5586 -39.7383zM364.301 180.92c18.7832 -2.79492 26.3779 -25.9814 12.7822 -39.3623l-75.915 -74.0576l17.9082 -104.613c0.206055 -1.24023 0.311523 -2.49219 0.311523 -3.79102c0 -12.7158 -10.2979 -23.0449 -23.002 -23.0957
c-3.80957 0.046875 -7.43066 1.02148 -10.5947 2.68555l-93.8242 49.3711l-93.8252 -49.3711c-3.17676 -1.7041 -6.83398 -2.68555 -10.6885 -2.68555c-12.668 0.0332031 -22.9434 10.3066 -22.9434 22.9824c0 1.36328 0.119141 2.69922 0.34668 3.99805l18.0029 104.613
l-75.916 74.0576c-13.5957 13.2871 -6.09473 36.583 12.6885 39.2686l104.826 15.3018l46.9121 95.2295c3.59766 7.57031 11.2988 12.7891 20.2324 12.7891c0.0898438 0 0.179688 0 0.270508 -0.000976562c0.0517578 0 0.0878906 0.0214844 0.139648 0.0214844
c8.99023 0 16.7686 -5.22949 20.4561 -12.8096l46.9121 -95.2295zM266.788 78.7109l74.791 73.1357l-103.42 15.083l-46.1924 93.8398l-46.3184 -93.8398l-103.389 -15.083l74.6973 -73.1357l-17.5957 -103.146l92.5117 48.7783l92.5107 -48.7783zM423.188 366.67
c5.23438 -2.63672 8.82812 -8.04102 8.82812 -14.2969s-3.59375 -11.6787 -8.82812 -14.3154l-48.5938 -24.3125l-24.2812 -48.6406c-2.58105 -5.27539 -7.99316 -8.89648 -14.2568 -8.89648h-0.0556641c-6.26855 0.0263672 -11.6875 3.63379 -14.3125 8.89551
l-24.2812 48.6416l-48.5938 24.3125c-5.22754 2.74316 -8.78613 8.20703 -8.8125 14.5098c0.00683594 6.25293 3.58203 11.6641 8.8125 14.3057l48.5938 24.3125l24.2812 48.6416c5.40625 10.8975 23.2188 10.8975 28.625 0l24.2812 -48.8447zM355.5 340.059
l24.6875 12.3994l-24.6875 12.4141c-3.09766 1.59277 -5.60254 4.10547 -7.1875 7.20801l-12.3125 24.7188l-12.3125 -24.7188c-1.55664 -3.12109 -4.07129 -5.64258 -7.1875 -7.20801l-24.6875 -12.4141l24.6875 -12.3994
c3.09082 -1.60156 5.59375 -4.11133 7.1875 -7.20703l12.3125 -24.7197l12.3125 24.7197c1.56152 3.11719 4.07422 5.6377 7.1875 7.20703z" />
    <glyph glyph-name="satellite" unicode="&#xf7bf;" 
d="M502.625 183.203c5.75195 -5.78516 9.30859 -13.7559 9.30859 -22.5498s-3.55664 -16.7744 -9.30859 -22.5596l-96.6855 -96.6875c-5.76172 -5.75586 -13.7158 -9.31641 -22.4951 -9.31641s-16.7422 3.56055 -22.5039 9.31641l-45.999 46
c9.99902 -48.2031 3.68652 -99 -20.125 -143.312c-2.60059 -4.82812 -7.70312 -8.11328 -13.5674 -8.11328c-0.107422 0 -0.200195 0.0175781 -0.307617 0.0195312h-0.0429688c-4.62891 0 -8.82324 1.87402 -11.8633 4.90625l-120.903 120.594l-37.8125 -37.7969
c0.71875 -2.5 1.625 -5 1.625 -7.79688c0 -17.6611 -14.3389 -31.999 -31.999 -31.999c-17.6611 0 -32 14.3389 -32 32c0 17.6602 14.3389 31.999 32 31.999c2.78125 0 5.28125 -0.90625 7.78125 -1.60938l37.9053 37.9062l-120.686 120.703
c-7.625 7.59375 -6.3125 20.6875 3.09375 25.7969c29.7529 15.9951 63.7686 25.0723 99.8877 25.0723c14.6045 0 28.9287 -1.35645 42.7031 -4.18164l-45.3115 45.3125c-5.73828 5.78906 -9.28418 13.7549 -9.28418 22.542s3.5459 16.7627 9.28418 22.5518l96.7178 96.7031
c5.71777 5.74414 13.6309 9.30176 22.3682 9.30176c0.0429688 0 0.0878906 -0.00488281 0.130859 -0.00488281h0.0234375c8.79785 0 16.7764 -3.54883 22.5703 -9.29688l70.8105 -70.9062l70.7803 70.7969c5.77539 5.81152 13.7734 9.41113 22.6055 9.41113
s16.8379 -3.59961 22.6123 -9.41113l68.6865 -68.5938c5.79395 -5.7998 9.37891 -13.8066 9.37891 -22.6436c0 -8.83789 -3.58496 -16.8535 -9.37891 -22.6533l-70.8115 -70.7969zM235.317 171.406c-32.5664 32.5068 -77.5088 52.6182 -127.112 52.6182
c-22.8262 0 -44.7832 -4.35156 -64.8848 -12.1182l232.621 -232.609c25.1875 65.4062 9.78125 141.703 -40.624 192.109zM128.038 319.406l70.6865 -70.8125l96.5918 96.6094l-70.7803 70.7031zM219.536 224.203c14.0742 -8.5918 26.8662 -18.6406 38.5 -30.2031
c11.9053 -11.9062 21.4053 -25.0938 29.9053 -38.7969l192.091 192.094l-68.7178 68.7031zM480.126 160.703l-70.8115 70.7031l-96.5918 -96.6094l70.9043 -70.7969z" />
    <glyph glyph-name="satellite-dish" unicode="&#xf7c0;" 
d="M346.588 -7.90625c8.3125 -8.39062 6.90625 -22.7969 -3.5 -28.3906c-32.7598 -17.583 -70.1992 -27.5596 -109.951 -27.5596c-64.2783 0 -122.787 25.9082 -164.961 68.0596c-74.4082 74.3896 -87.9082 186.702 -40.501 274.89
c2.84375 5.31055 8.44629 8.92676 14.8877 8.92676c0.116211 0 0.21582 -0.0185547 0.331055 -0.0205078h0.0175781c5.10156 0 9.72559 -2.06445 13.0762 -5.40625l134.004 -134l35.5938 35.6094c-0.6875 2.59375 -1.59375 5 -1.59375 7.79688
c0 17.6621 14.3398 32.001 32.001 32.001c17.6621 0 32.001 -14.3389 32.001 -32.001c0 -17.6611 -14.3389 -32 -32.001 -32c-2.8125 0 -5.21875 0.90625 -7.8125 1.59375l-35.5947 -35.5938zM309.993 -16.5938l-262.6 262.593
c-30.7197 -74.0938 -14.125 -161.703 43.376 -219.202c36.1709 -36.3291 86.2227 -58.8271 141.486 -58.8271c0.166992 0 0.350586 0.0292969 0.517578 0.0302734c22.1562 0 56.751 6.90625 77.2197 15.4062zM511.998 136.296
c0.000976562 -0.0380859 0.000976562 -0.0771484 0.000976562 -0.115234c0 -4.46484 -3.625 -8.08984 -8.08984 -8.08984c-0.00195312 0 -0.00292969 0.00195312 -0.00488281 0.00195312h-16c-4.34668 0.0380859 -7.86914 3.56055 -7.90723 7.90625
c-4.09375 152.797 -127.315 276.296 -280.1 280.093c-4.35938 0.0107422 -7.89648 3.54785 -7.90625 7.90625v15.9062v0.0185547c0 4.45801 3.61816 8.07617 8.07617 8.07617c0.0380859 0 0.0732422 0 0.111328 -0.000976562
c170.004 -4.29688 307.507 -141.796 311.819 -311.702zM415.902 136.296v-0.0888672c0 -4.47852 -3.63672 -8.11523 -8.11523 -8.11523c-0.00390625 0 -0.00683594 0.000976562 -0.00976562 0.000976562h-15.7822c-4.34277 0.0195312 -7.87793 3.49414 -8 7.8125
c-3.59375 99.7969 -84.3145 180 -184.223 184c-4.29004 0.166992 -7.73242 3.68066 -7.78125 8v16c-0.000976562 0.0292969 -0.000976562 0.0585938 -0.000976562 0.0878906c0 4.4209 3.58887 8.00879 8.00879 8.00879
c0.0605469 0 0.119141 -0.00195312 0.179688 -0.00292969c117.003 -4.29688 211.505 -98.7031 215.724 -215.703v0z" />
    <glyph glyph-name="user-nurse" unicode="&#xf82f;" horiz-adv-x="448" 
d="M319.41 130c71.5 -3.08984 128.59 -61.5898 128.59 -133.8c-0.0166016 -32.1143 -26.0859 -58.1836 -58.2002 -58.2002h-331.6c-32.1143 0.0166016 -58.1836 26.0859 -58.2002 58.2002c0 72.21 57.0898 130.71 128.59 133.8l95.4102 -95.3896zM208 -30v35.3398
l-91.2695 91.2705c-46.7305 -7.9707 -84.7305 -52.9502 -84.7305 -100.41c0.0439453 -14.4404 11.7598 -26.1562 26.2002 -26.2002h149.8zM389.8 -30c14.4404 0.0439453 26.1562 11.7598 26.2002 26.2002c0 47.46 -38 92.4395 -84.75 100.41l-91.25 -91.25v-35.3604h149.8z
M224 146c-70.6455 0 -128 57.3545 -128 128v110.18c0 13.7119 8.62988 25.4092 20.7598 29.96l84.7705 31.79c6.98535 2.61719 14.6035 4.04785 22.498 4.04785c7.89355 0 15.4561 -1.43066 22.4414 -4.04785l84.7705 -31.75
c12.1309 -4.55078 20.7598 -16.248 20.7598 -29.96v-0.0400391v-110.18c0 -70.6455 -57.3545 -128 -128 -128zM128 384.18v-78.1797h192v78.1797l-84.7598 31.8203c-3.49219 1.30957 -7.30176 2.02539 -11.249 2.02539s-7.72852 -0.71582 -11.2217 -2.02539zM320 274h-192
c0 -52.9834 43.0166 -96 96 -96s96 43.0166 96 96zM259 375.33c2.75977 0 5 -2.24023 5 -5v-16.6602c0 -2.75977 -2.24023 -5 -5 -5h-21.6699v-21.6699c0 -2.75977 -2.24023 -5 -5 -5h-16.6602c-2.75977 0 -5 2.24023 -5 5v21.6699h-21.6699c-2.75977 0 -5 2.24023 -5 5
v16.6602c0 2.75977 2.24023 5 5 5h21.6699v21.6699c0 2.75977 2.24023 5 5 5h16.6602c2.75977 0 5 -2.24023 5 -5v-21.6699h21.6699z" />
    <glyph glyph-name="flux-capacitor" unicode="&#xf8ba;" horiz-adv-x="448" 
d="M448 336v-288c-0.0849609 -44.1143 -35.8857 -79.915 -80 -80h-288c-44.1143 0.0849609 -79.915 35.8857 -80 80v288c0.0849609 44.1143 35.8857 79.915 80 80h288c44.1143 -0.0849609 79.915 -35.8857 80 -80zM416 336c-0.0507812 26.4688 -21.5312 47.9492 -48 48h-288
c-26.4688 -0.0507812 -47.9492 -21.5312 -48 -48v-288c0.0507812 -26.4688 21.5312 -47.9492 48 -48h288c26.4688 0.0507812 47.9492 21.5312 48 48v288zM384 272c-0.0185547 -44.1445 -35.8555 -79.9814 -80 -80c-3.80762 0.107422 -7.50879 0.443359 -11.1875 1
l45.125 45.0625c7.625 7.73438 13.7812 22.8125 13.7812 33.6562c-0.00683594 26.4883 -21.5117 47.9932 -48 48c-10.8438 0 -25.9062 -6.17188 -33.6562 -13.7812l-46.0625 -46.0625l-46.0625 46.1094c-7.75 7.60938 -22.8125 13.7812 -33.6562 13.7812
c-26.4883 -0.00683594 -47.9932 -21.5117 -48 -48c0 -10.8438 6.15625 -25.9375 13.7812 -33.6719l45.125 -45.0938c-3.67871 -0.556641 -7.37988 -0.892578 -11.1875 -1c-44.1533 0 -80 35.8467 -80 80s35.8467 80 80 80s80 -35.8467 80 -80c0 44.1533 35.8467 80 80 80
s80 -35.8467 80 -80zM208 112v73.375l-75.3125 75.3125c-2.55176 2.99023 -4.16602 6.83203 -4.375 11.0156v0.0292969c0 8.81543 7.15625 15.9717 15.9707 15.9717c0.00976562 0 0.0195312 -0.000976562 0.0292969 -0.000976562
c4.17578 -0.224609 8.01074 -1.84277 11 -4.39062l68.6875 -68.6875l68.6875 68.6875c2.98926 2.54785 6.82422 4.16602 11 4.39062h0.0292969c8.81543 0 15.9717 -7.15625 15.9717 -15.9707c0 -0.00976562 -0.000976562 -0.0195312 -0.000976562 -0.0292969
c-0.208984 -4.18359 -1.82324 -8.02539 -4.375 -11.0156l-75.3125 -75.3125v-73.375c0 -8.83105 -7.16895 -16 -16 -16s-16 7.16895 -16 16zM304 112c0.000976562 -0.169922 0.00195312 -0.34082 0.00195312 -0.511719c0 -44.1543 -35.8477 -80.001 -80.002 -80.001
s-80.002 35.8467 -80.002 80.001c0 25.2969 11.71 47.8477 30.0645 62.5117l1.9375 -1.875v-60.125c0 -26.4922 21.5078 -48 48 -48s48 21.5078 48 48v60.125l1.9375 1.875c18.2988 -14.5029 30.0039 -36.874 30.0625 -62z" />
    <glyph glyph-name="piano" unicode="&#xf8d4;" 
d="M476.62 177.69c21.0029 -10.501 35.3779 -32.1797 35.3799 -57.2402v-152.45c0 -17.6611 -14.3389 -32 -32 -32h-448c-17.6611 0 -32 14.3389 -32 32v295.55v0c0 101.801 82.6494 184.45 184.45 184.45h15.0996c101.801 0 184.45 -82.6494 184.45 -184.45
c0.00195312 -25.0605 14.377 -46.7393 35.3799 -57.2402zM480 -32v96h-48v-40c0 -4.41504 -3.58496 -8 -8 -8h-16c-4.41504 0 -8 3.58496 -8 8v40h-32v-40c0 -4.41504 -3.58496 -8 -8 -8h-16c-4.41504 0 -8 3.58496 -8 8v40h-96v-40c0 -4.41504 -3.58496 -8 -8 -8h-16
c-4.41504 0 -8 3.58496 -8 8v40h-32v-40c0 -4.41504 -3.58496 -8 -8 -8h-16c-4.41504 0 -8 3.58496 -8 8v40h-32v-40c0 -4.41504 -3.58496 -8 -8 -8h-16c-4.41504 0 -8 3.58496 -8 8v40h-48v-96h448zM480 96v24.4502c0 0.0351562 0.03125 0.0498047 0.03125 0.0849609
c0 12.502 -7.22363 23.3301 -17.7217 28.5352l-57.2393 28.6201c-31.4922 15.6143 -53.0713 48.0381 -53.0713 85.5439c0 0.105469 0.000976562 0.210938 0.000976562 0.31543c0 84.0605 -68.3896 152.45 -152.45 152.45h-15.0996
c-84.0605 0 -152.45 -68.3896 -152.45 -152.45v-167.55h448z" />
    <glyph glyph-name="air-conditioner" unicode="&#xf8f4;" horiz-adv-x="576" 
d="M544 448c17.6611 0 32 -14.3389 32 -32v-160c0 -17.6611 -14.3389 -32 -32 -32h-512c-17.6611 0 -32 14.3389 -32 32v160c0 17.6611 14.3389 32 32 32h512zM544 256v160h-512v-160h512zM72 288c-4.41504 0 -8 3.58496 -8 8v16c0 4.41504 3.58496 8 8 8h432
c4.41504 0 8 -3.58496 8 -8v-16c0 -4.41504 -3.58496 -8 -8 -8h-432zM224 24v168h32v-168c0 -48.5684 -39.4316 -88 -88 -88h-12.0898c-45.9102 0 -87.0303 33.5 -91.4805 79.2197c-0.286133 2.8877 -0.427734 5.72754 -0.427734 8.69043
c0 48.5869 39.4219 88.04 87.998 88.0898h16c4.41504 0 8 -3.58496 8 -8v-16c0 -4.41504 -3.58496 -8 -8 -8h-14.3896c-26.7207 0 -51.04 -18.0596 -56.4004 -44.2402c-0.803711 -3.77637 -1.22559 -7.65527 -1.22559 -11.6699
c0 -30.9326 25.0928 -56.0498 56.0156 -56.0898h16c30.9072 0 56 25.0928 56 56zM420.1 144c45.9004 0 87.0205 -33.5 91.4707 -79.2197c0.286133 -2.8877 0.427734 -5.72754 0.427734 -8.69043c0 -48.5869 -39.4219 -88.04 -87.998 -88.0898h-16
c-48.5684 0 -88 39.4316 -88 88v136h32v-136c0 -30.9072 25.0928 -56 56 -56h14.3896c26.7207 0 51.04 18.0596 56.4004 44.2402c0.803711 3.77637 1.22559 7.65527 1.22559 11.6699c0 30.9326 -25.0928 56.0498 -56.0156 56.0898h-16c-4.41504 0 -8 3.58496 -8 8v16
c0 4.41504 3.58496 8 8 8h12.0996z" />
    <glyph glyph-name="alien" unicode="&#xf8f5;" horiz-adv-x="448" 
d="M224 448c123.688 0 224 -88.0293 224 -232.451c0 -111.777 -134.215 -224.598 -194.863 -269.875c-8.12109 -6.06055 -18.2754 -9.65039 -29.1777 -9.65039c-10.9033 0 -20.9746 3.58984 -29.0957 9.65039c-60.6484 45.2773 -194.863 158.098 -194.863 269.875
c0 144.422 100.281 232.451 224 232.451zM233.992 -28.6836c42.6992 31.875 182.008 143.688 182.008 244.232c0 118.023 -78.9531 200.451 -192 200.451s-192 -82.4277 -192 -200.451c0 -100.545 139.309 -212.357 182.006 -244.232
c2.78613 -2.07812 6.26855 -3.30859 10.0078 -3.30859c3.73828 0 7.19238 1.23047 9.97852 3.30859zM368 236c8.83008 0 16 -7.16992 16 -16v-12c0 -44.1533 -35.8467 -80 -80 -80h-48c-8.83008 0 -16 7.16992 -16 16v12c0 44.1523 35.8477 80 80 80h48zM304 160
c25.1152 0.03125 45.7461 19.4131 47.834 44h-31.834c-25.1162 -0.0302734 -45.7471 -19.4131 -47.834 -44h31.834zM128 236c44.1523 0 80 -35.8477 80 -80v-12c0 -8.83008 -7.16992 -16 -16 -16h-48c-44.1533 0 -80 35.8467 -80 80v12c0 8.83008 7.16992 16 16 16h48z
M144 160h31.834c-2.08691 24.5869 -22.7178 43.9697 -47.834 44h-31.834c2.08789 -24.5869 22.7188 -43.9688 47.834 -44z" />
    <glyph glyph-name="alien-monster" unicode="&#xf8f6;" horiz-adv-x="576" 
d="M192 128v96h32v-96h-32zM352 128v96h32v-96h-32zM544 336c17.6533 -0.0175781 31.9824 -14.3467 32 -32v-144c-0.0175781 -17.6533 -14.3467 -31.9824 -32 -32h-32v-32c-0.0175781 -17.6533 -14.3467 -31.9824 -32 -32h-32v-64
c-0.0175781 -17.6533 -14.3467 -31.9824 -32 -32h-80c-17.6533 0.0175781 -31.9824 14.3467 -32 32v32c0.0175781 17.6533 14.3467 31.9824 32 32h-96c17.6533 -0.0175781 31.9824 -14.3467 32 -32v-32c-0.0175781 -17.6533 -14.3467 -31.9824 -32 -32h-80
c-17.6533 0.0175781 -31.9824 14.3467 -32 32v64h-32c-17.6533 0.0175781 -31.9824 14.3467 -32 32v32h-32c-17.6533 0.0175781 -31.9824 14.3467 -32 32v144c0.0175781 17.6533 14.3467 31.9824 32 32h32c17.6533 -0.0175781 31.9824 -14.3467 32 -32v-16h64v32h-32
c-17.6533 0.0175781 -31.9824 14.3467 -32 32v32c0.0175781 17.6533 14.3467 31.9824 32 32h32c17.6533 -0.0175781 31.9824 -14.3467 32 -32h32c17.6533 -0.0175781 31.9824 -14.3467 32 -32v-32h64v32c0.0175781 17.6533 14.3467 31.9824 32 32h32
c0.0175781 17.6533 14.3467 31.9824 32 32h32c17.6533 -0.0175781 31.9824 -14.3467 32 -32v-32c-0.0175781 -17.6533 -14.3467 -31.9824 -32 -32h-32v-32h64v16c0.0175781 17.6533 14.3467 31.9824 32 32h32zM416 384v-32h32v32h-32zM128 352h32v32h-32v-32zM240 0v32h-48
v32h-32v-64h80zM416 0v64h-32v-32h-48v-32h80zM544 160v144h-32v-112h-32v64h-96v96h-32v-64h-128v64h-32v-96h-96v-64h-32v112h-32v-144h64v-64h384v64h64z" />
    <glyph glyph-name="bed-alt" unicode="&#xf8f7;" 
d="M480 221.85c18.2598 -4.84961 32 -20.7393 32 -40.5195v-205.33c0 -4.41504 -3.58496 -8 -8 -8h-16c-4.41504 0 -8 3.58496 -8 8v56h-448v-56c0 -4.41504 -3.58496 -8 -8 -8h-16c-4.41504 0 -8 3.58496 -8 8v205.33c0 19.7803 13.7402 35.6699 32 40.5195v146.15
c0 26.4922 21.5078 48 48 48h352c26.4922 0 48 -21.5078 48 -48v-146.15zM64 256v-32h176v32c0 17.6611 -14.3389 32 -32 32h-112c-17.6611 0 -32 -14.3389 -32 -32zM448 224v32c0 17.6611 -14.3389 32 -32 32h-112c-17.6611 0 -32 -14.3389 -32 -32v-32h176zM80 384
c-8.83105 0 -16 -7.16895 -16 -16v-56.9004c9.35742 5.56934 20.3447 8.83398 32 8.90039h112c19.1191 0 36.2852 -8.38477 48 -21.71c11.7148 13.3252 28.8809 21.71 48 21.71h112c11.6553 -0.0664062 22.6426 -3.33105 32 -8.90039v56.9004c0 8.83105 -7.16895 16 -16 16
h-352zM32 64h448v117.33c-0.0107422 5.88379 -4.78613 10.6592 -10.6699 10.6699h-426.66c-5.88379 -0.0107422 -10.6592 -4.78613 -10.6699 -10.6699v-117.33z" />
    <glyph glyph-name="bed-bunk" unicode="&#xf8f8;" horiz-adv-x="576" 
d="M464 448c61.8145 0 112 -50.1855 112 -112v-392c0 -4.41504 -3.58496 -8 -8 -8h-16c-4.41504 0 -8 3.58496 -8 8v56h-512v-56c0 -4.41504 -3.58496 -8 -8 -8h-16c-4.41504 0 -8 3.58496 -8 8v496c0 4.41504 3.58496 8 8 8h16c4.41504 0 8 -3.58496 8 -8v-152h192v144
c0 8.83105 7.16895 16 16 16h224zM544 72v8c-0.0498047 44.1299 -35.8701 79.9502 -80 80h-208v-128h288v40zM544 158.23v97.7695h-512v-224h192v144c0 8.83105 7.16895 16 16 16h224c0.0166016 0 0.0390625 0.0234375 0.0556641 0.0234375
c31.3379 0 59.6758 -12.9531 79.9443 -33.793zM544 288v48c-0.0498047 44.1299 -35.8701 79.9502 -80 80h-208v-128h288zM128 320c-35.3223 0 -64 28.6777 -64 64s28.6777 64 64 64s64 -28.6777 64 -64s-28.6777 -64 -64 -64zM128 416c-17.6611 0 -32 -14.3389 -32 -32
s14.3389 -32 32 -32s32 14.3389 32 32s-14.3389 32 -32 32zM128 64c-35.3223 0 -64 28.6777 -64 64s28.6777 64 64 64s64 -28.6777 64 -64s-28.6777 -64 -64 -64zM128 160c-17.6611 0 -32 -14.3389 -32 -32s14.3389 -32 32 -32s32 14.3389 32 32s-14.3389 32 -32 32z" />
    <glyph glyph-name="bed-empty" unicode="&#xf8f9;" horiz-adv-x="640" 
d="M528 320c61.8145 0 112 -50.1855 112 -112v-200c0 -4.41504 -3.58496 -8 -8 -8h-16c-4.41504 0 -8 3.58496 -8 8v56h-576v-56c0 -4.41504 -3.58496 -8 -8 -8h-16c-4.41504 0 -8 3.58496 -8 8v368c0 4.41504 3.58496 8 8 8h16c4.41504 0 8 -3.58496 8 -8v-56h496zM32 96
h128v192h-128v-192zM608 96v112c-0.0498047 44.1299 -35.8701 79.9502 -80 80h-336v-192h416z" />
    <glyph glyph-name="bell-on" unicode="&#xf8fa;" horiz-adv-x="640" 
d="M528 384c-8.83008 0 -16.0186 7.16016 -16.0186 15.9902c0 6.26562 3.6084 11.6943 8.8584 14.3193l64 32c2.15137 1.07617 4.6084 1.70117 7.17578 1.70117c8.83105 0 16.001 -7.16992 16.001 -16.001c0 -6.26465 -3.60742 -11.6934 -8.85645 -14.3193l-64 -32
c-2.15332 -1.07129 -4.5957 -1.68457 -7.16016 -1.69043zM80 288c8.83105 0 16 -7.16895 16 -16s-7.16895 -16 -16 -16h-64c-8.83105 0 -16 7.16895 -16 16s7.16895 16 16 16h64zM40.8398 417.69c-5.24902 2.62598 -8.8252 8.03613 -8.8252 14.2998
c0 8.83203 7.16992 16.002 16.001 16.002c2.56641 0 4.99316 -0.606445 7.14453 -1.68262l64 -32c5.25 -2.625 8.84277 -8.04492 8.84277 -14.3096c0 -8.83105 -7.16895 -16 -16 -16h-0.00292969c-2.56445 0.00585938 -5.00684 0.619141 -7.16016 1.69043zM624 288
c8.83105 0 16 -7.16895 16 -16s-7.16895 -16 -16 -16h-64c-8.83105 0 -16 7.16895 -16 16s7.16895 16 16 16h64zM320 -32c17.6611 0 32 14.3389 32 32h32c0 -35.3223 -28.6777 -64 -64 -64s-64 28.6777 -64 64h32c0 -17.6611 14.3389 -32 32 -32zM480 262.09
c0 -94.4199 21.4102 -122.28 49.3799 -148.87c9.00195 -8.48047 14.5918 -20.5352 14.5918 -33.8662c0 -6.13379 -1.18945 -11.9902 -3.35156 -17.3535c-7.01562 -17.5869 -24.1836 -30.001 -44.2617 -30.001c-0.119141 0 -0.239258 0 -0.358398 0.000976562h-352
c-0.114258 -0.000976562 -0.202148 -0.0292969 -0.31543 -0.0292969c-20.0605 0 -37.2432 12.418 -44.2744 29.9795c-2.16992 5.36914 -3.39844 11.2617 -3.39844 17.4053c0 13.332 5.62891 25.3604 14.6387 33.835c27.9395 26.6191 49.3496 54.5 49.3496 148.899
c0 79.6006 63.3398 144.5 144 152.351v17.5596c0 8.83105 7.16895 16 16 16s16 -7.16895 16 -16v-17.5498c80.6299 -7.86035 144 -72.7598 144 -152.36zM496 64c14.1602 0 21.3799 16.4404 11.2803 26.0195c-35.0605 33.3906 -59.2803 70.7305 -59.2803 172.07
c0 67.3906 -57.2197 121.91 -128 121.91s-128 -54.5303 -128 -121.91c0 -101.75 -24.4697 -138.89 -59.3096 -172.09c-10.0303 -9.53027 -2.91016 -26 11.3096 -26h352z" />
    <glyph glyph-name="blinds" unicode="&#xf8fb;" 
d="M500.48 96l11.0391 -44.1201c0.311523 -1.24414 0.477539 -2.53906 0.477539 -3.87988c0 -8.83008 -7.16797 -15.999 -15.9971 -16h-480c-8.82031 0.0126953 -15.9766 7.16992 -15.9766 15.9932c0 1.33984 0.165039 2.64258 0.476562 3.88672l11 44.1201h33l-8 -32
h438.98l-8 32h33zM500.48 0l11.0391 -44.1201c0.311523 -1.24414 0.477539 -2.53906 0.477539 -3.87988c0 -8.83008 -7.16797 -15.999 -15.9971 -16h-480c-8.82031 0.0126953 -15.9766 7.16992 -15.9766 15.9932c0 1.33984 0.165039 2.64258 0.476562 3.88672l11 44.1201h33
l-8 -32h438.98l-8 32h33zM496 448c8.83105 0 16 -7.16895 16 -16v-64c0 -8.83105 -7.16895 -16 -16 -16h-336v-162.94c18.6436 -6.55176 32.0254 -24.3223 32.0254 -45.1943c0 -26.4307 -21.459 -47.8896 -47.8906 -47.8896c-20.8711 0 -38.6426 13.3809 -45.1943 32.0244
h-82.9404c-8.82031 0.0126953 -15.9766 7.16992 -15.9766 15.9932c0 1.33984 0.165039 2.64258 0.476562 3.88672l11 44.1201h33l-8 -32h62.4404c4.80762 13.54 15.5195 24.252 29.0596 29.0596v34.9404h-112c-8.82031 0.0126953 -15.9766 7.16992 -15.9766 15.9932
c0 1.33984 0.165039 2.64258 0.476562 3.88672l19 76.1201h33l-16 -64h91.5v96h-112c-8.83105 0 -16 7.16895 -16 16v64c0 8.83105 7.16895 16 16 16h480zM144 128c8.83105 0 16 7.16895 16 16s-7.16895 16 -16 16s-16 -7.16895 -16 -16s7.16895 -16 16 -16zM480 384v32
h-448v-32h448zM492.48 320l19.0391 -76.1201c0.311523 -1.24414 0.477539 -2.53906 0.477539 -3.87988c0 -8.83008 -7.16797 -15.999 -15.9971 -16h-304v32h283.48l-16 64h33zM500.48 192l11.0391 -44.1201c0.311523 -1.24414 0.477539 -2.53906 0.477539 -3.87988
c0 -8.83008 -7.16797 -15.999 -15.9971 -16h-273.61c1.05566 5.18945 1.60938 10.4404 1.60938 15.9395c0 5.5 -0.553711 10.8711 -1.60938 16.0605h253.091l-8 32h33z" />
    <glyph glyph-name="blinds-open" unicode="&#xf8fc;" 
d="M496 -32c8.83105 0 16 -7.16895 16 -16s-7.16895 -16 -16 -16h-480c-8.83105 0 -16 7.16895 -16 16s7.16895 16 16 16h480zM16 96c-8.83105 0 -16 7.16895 -16 16s7.16895 16 16 16h49.6104c2.48926 -11.8057 7.64258 -22.7656 14.75 -32h-64.3604zM496 128
c8.83105 0 16 -7.16895 16 -16s-7.16895 -16 -16 -16h-288.36c7.10742 9.23438 12.2607 20.1943 14.75 32h273.61zM496 448c8.83105 0 16 -7.16895 16 -16v-64c0 -8.83105 -7.16895 -16 -16 -16h-336v-162.94c18.6426 -6.59082 31.9854 -24.3809 31.9854 -45.2695
c0 -26.4912 -21.5078 -48 -48 -48s-48 21.5088 -48 48c0 20.8887 13.3721 38.6787 32.0146 45.2695v66.9404h-112c-8.83105 0 -16 7.16895 -16 16s7.16895 16 16 16h112v64h-112c-8.83105 0 -16 7.16895 -16 16v64c0 8.83105 7.16895 16 16 16h480zM144 128
c8.83105 0 16 7.16895 16 16s-7.16895 16 -16 16s-16 -7.16895 -16 -16s7.16895 -16 16 -16zM480 384v32h-448v-32h448zM496 288c8.83105 0 16 -7.16895 16 -16s-7.16895 -16 -16 -16h-304v32h304z" />
    <glyph glyph-name="blinds-raised" unicode="&#xf8fd;" 
d="M500.48 224l11.0391 -44.1201c0.311523 -1.24414 0.477539 -2.53906 0.477539 -3.87988c0 -8.83008 -7.16797 -15.999 -15.9971 -16h-304v32h283.48l-8 32h33zM500.48 320l11.0391 -44.1201c0.311523 -1.24414 0.477539 -2.53906 0.477539 -3.87988
c0 -8.83008 -7.16797 -15.999 -15.9971 -16h-304v32h283.48l-8 32h33zM496 448c8.83105 0 16 -7.16895 16 -16v-64c0 -8.83105 -7.16895 -16 -16 -16h-336v-322.94c18.6426 -6.59082 31.9854 -24.3809 31.9854 -45.2695c0 -26.4912 -21.5078 -48 -48 -48s-48 21.5088 -48 48
c0 20.8887 13.3721 38.6787 32.0146 45.2695v130.94h-112c-8.82031 0.0126953 -15.9766 7.16992 -15.9766 15.9932c0 1.33984 0.165039 2.64258 0.476562 3.88672l11 44.1201h33l-8 -32h91.5v64h-112c-8.82031 0.0126953 -15.9766 7.16992 -15.9766 15.9932
c0 1.33984 0.165039 2.64258 0.476562 3.88672l11 44.1201h33l-8 -32h91.5v64h-112c-8.83105 0 -16 7.16895 -16 16v64c0 8.83105 7.16895 16 16 16h480zM144 -32c8.83105 0 16 7.16895 16 16s-7.16895 16 -16 16s-16 -7.16895 -16 -16s7.16895 -16 16 -16zM480 384v32h-448
v-32h448z" />
    <glyph glyph-name="camera-home" unicode="&#xf8fe;" horiz-adv-x="448" 
d="M208 320c8.83105 0 16 -7.16895 16 -16s-7.16895 -16 -16 -16c-17.6611 0 -32 -14.3389 -32 -32c0 -8.83105 -7.16895 -16 -16 -16s-16 7.16895 -16 16c0.0332031 35.3076 28.6924 63.9668 64 64zM223.94 384h0.0341797c79.4756 0 144 -64.5244 144 -144
c0 -79.4668 -64.5107 -143.986 -143.975 -144h-0.0595703c-79.4766 0 -144 64.5244 -144 144s64.5234 144 144 144zM223.94 128h0.0341797c61.8145 0 112 50.1855 112 112c0 61.8057 -50.1719 111.986 -111.975 112h-0.0595703c-61.8145 0 -112 -50.1855 -112 -112
s50.1855 -112 112 -112zM384 448c35.3223 0 64 -28.6777 64 -64v-288c0 -35.3223 -28.6777 -64 -64 -64h-72.7197l60.1396 -34.8301c6.92969 -4.32031 12.5801 -14.4502 12.5801 -22.6201v-11.8799c-0.00585938 -14.7031 -11.9316 -26.6426 -26.6299 -26.6699h-266.67
c-14.7168 0.00585938 -26.665 11.9531 -26.6699 26.6699v11.9004c0 8.14941 5.59961 18.2695 12.5 22.5996l60.1797 34.8301h-72.71c-35.3223 0 -64 28.6777 -64 64v288c0 35.3223 28.6777 64 64 64h320zM352 -28.54l-56.75 32.8398l-47.8496 27.7002h-46.8105
l-47.8799 -27.7002l-56.71 -32.8193v-3.48047h256v3.45996zM416 96v288c0 17.6611 -14.3389 32 -32 32h-320c-17.6611 0 -32 -14.3389 -32 -32v-288c0 -17.6611 14.3389 -32 32 -32h320c17.6611 0 32 14.3389 32 32z" />
    <glyph glyph-name="caravan" unicode="&#xf8ff;" horiz-adv-x="640" 
d="M416 208c-8.83105 0 -16 7.16895 -16 16s7.16895 16 16 16s16 -7.16895 16 -16s-7.16895 -16 -16 -16zM632 96c4.41504 0 8 -3.58496 8 -8v-16c0 -4.41504 -3.58496 -8 -8 -8h-344c0 -52.9834 -43.0166 -96 -96 -96s-96 43.0166 -96 96c-52.9834 0 -96 43.0166 -96 96
v192c0 52.9834 43.0166 96 96 96h320c88.3066 0 160 -71.6934 160 -160v-192h56zM192 0c35.3047 0.0380859 63.9619 28.6953 64 64c0 35.3223 -28.6777 64 -64 64s-64 -28.6777 -64 -64s28.6777 -64 64 -64zM448 96v224h-96v-224h96zM544 96v192
c-0.0771484 70.6094 -57.3906 127.923 -128 128h-320c-35.3047 -0.0380859 -63.9619 -28.6953 -64 -64v-192c0.0380859 -35.3047 28.6953 -63.9619 64 -64h5.87988c13.2197 37.2002 48.3799 64 90.1201 64s76.9004 -26.7998 90.1201 -64h37.8799v224
c0 17.6611 14.3389 32 32 32h96c17.6611 0 32 -14.3389 32 -32v-224h64zM240 352c17.6611 0 32 -14.3389 32 -32v-64c0 -17.6611 -14.3389 -32 -32 -32h-128c-17.6611 0 -32 14.3389 -32 32v64c0 17.6611 14.3389 32 32 32h128zM240 256v64h-128v-64h128z" />
  </font>
</defs>
</svg>
