<?xml version="1.0" standalone="no"?>
<!DOCTYPE svg PUBLIC "-//W3C//DTD SVG 1.1//EN" "http://www.w3.org/Graphics/SVG/1.1/DTD/svg11.dtd" >
<svg xmlns="http://www.w3.org/2000/svg" xmlns:xlink="http://www.w3.org/1999/xlink" version="1.1">
<metadata>
Created by FontForge 20200314 at Wed Jan 13 11:59:43 2021
 By Robert Madole
Copyright (c) Font Awesome
</metadata>
<!-- Font Awesome Pro 5.15.2 by @fontawesome - https://fontawesome.com License - https://fontawesome.com/license (Commercial License) --><defs>
<font id="FontAwesome5Duotone-Solid" horiz-adv-x="512" >
  <font-face 
    font-family="Font Awesome 5 Duotone Solid"
    font-weight="900"
    font-stretch="normal"
    units-per-em="512"
    panose-1="2 0 5 3 0 0 0 0 0 0"
    ascent="448"
    descent="-64"
    bbox="-0.5 -64.0996 640.021 448.726"
    underline-thickness="25"
    underline-position="-50"
    unicode-range="U+0020-10F8FF"
  />
    <missing-glyph />
    <glyph glyph-name="volume-down-primary" unicode="&#xf027;" horiz-adv-x="384" 
d="M305.62 259.43c4.1084 7.4082 12.0098 12.4277 21.0732 12.4277c4.1748 0 8.1123 -1.10547 11.5371 -2.97754c27.3057 -14.7998 45.8662 -43.7139 45.8662 -76.9297c0 -33.2148 -18.5605 -62.0205 -45.8662 -76.8203
c-3.42871 -1.8877 -7.36719 -2.96191 -11.5547 -2.96191c-13.251 0 -24.0078 10.7568 -24.0078 24.0068c0 9.0625 4.98145 16.9297 12.4023 21.0156c12.4648 6.62695 20.96 19.749 20.96 34.8389s-8.49512 28.1631 -20.96 34.791
c-7.42188 4.08301 -12.4561 11.9795 -12.4561 21.042c0 4.18848 1.11621 8.13867 3.00586 11.5674z" />
    <glyph glyph-name="volume-up-primary" unicode="&#xf028;" horiz-adv-x="576" 
d="M338.23 268.87c27.3066 -14.7969 45.8672 -43.6016 45.8672 -76.8154c0 -33.2148 -18.5605 -62.1279 -45.8672 -76.9248c-3.42871 -1.8877 -7.41797 -2.99219 -11.6055 -2.99219c-13.25 0 -24.0078 10.7568 -24.0078 24.0068c0 9.06348 5.03223 16.96 12.4531 21.0459
c12.4648 6.62402 20.9619 19.6963 20.9619 34.7852c0 15.0898 -8.49707 28.21 -20.9619 34.834c-7.4209 4.08594 -12.4023 11.9531 -12.4023 21.0156c0 13.25 10.7568 24.0068 24.0078 24.0068c4.1875 0 8.12598 -1.07422 11.5547 -2.96191zM480 192
c0 -0.106445 0.194336 -0.0917969 0.194336 -0.198242c0 -65.625 -34.3145 -123.299 -85.9639 -156.042c-3.70898 -2.35938 -8.11914 -3.7666 -12.8359 -3.7666c-8.54297 0 -16.0479 4.48535 -20.2842 11.2266c-2.35645 3.74121 -3.76074 8.18066 -3.76074 12.9248
c0 8.57324 4.45312 16.1143 11.1699 20.4355c38.2275 24.2402 63.623 66.7598 63.623 115.335c0 48.5742 -25.3955 91.2646 -63.623 115.505c-6.71484 4.32324 -11.126 11.876 -11.126 20.4492c0 4.74316 1.3623 9.16992 3.7168 12.9111
c4.22559 6.74902 11.7383 11.2012 20.2812 11.2012c4.72363 0 9.12891 -1.37305 12.8389 -3.74121c51.6494 -32.748 85.7695 -90.3047 85.7695 -155.933v-0.307617zM448.35 428v0.0703125c77.0371 -50.3633 127.98 -137.039 127.98 -235.863
s-50.9434 -185.844 -127.98 -236.207c-4.0127 -2.95605 -9.01562 -4.73047 -14.377 -4.73047c-13.3564 0 -24.2002 10.8438 -24.2002 24.2002c0 8.91602 4.83203 16.7119 12.0176 20.9102c63.8398 41.7266 106.06 113.548 106.06 195.438s-42.2197 153.997 -106.06 195.723
c-6.66895 4.31152 -11.0371 11.7832 -11.0371 20.3086c0 13.3564 10.8438 24.2002 24.2002 24.2002c4.95215 0 9.55957 -1.49121 13.3965 -4.04883z" />
    <glyph glyph-name="chart-bar-primary" unicode="&#xf080;" 
d="M275.2 352c6.39941 0 12.7998 -6.40039 12.7998 -12.7998v-198.4c0 -6.39941 -6.40039 -12.7998 -12.7998 -12.7998h-38.4004c-6.39941 0 -12.7998 6.40039 -12.7998 12.7998v198.4c0 6.39941 6.40039 12.7998 12.7998 12.7998h38.4004zM179.2 224
c6.39941 0 12.7998 -6.40039 12.7998 -12.7998v-70.4004c0 -6.39941 -6.40039 -12.7998 -12.7998 -12.7998h-38.4004c-6.39941 0 -12.7998 6.40039 -12.7998 12.7998v70.4004c0 6.39941 6.40039 12.7998 12.7998 12.7998h38.4004zM467.2 384
c6.39941 0 12.7998 -6.40039 12.7998 -12.7998v-230.4c0 -6.39941 -6.40039 -12.7998 -12.7998 -12.7998h-38.4004c-6.39941 0 -12.7998 6.40039 -12.7998 12.7998v230.4c0 6.39941 6.40039 12.7998 12.7998 12.7998h38.4004zM371.2 288
c6.39941 0 12.7998 -6.40039 12.7998 -12.7998v-134.4c0 -6.39941 -6.40039 -12.7998 -12.7998 -12.7998h-38.4004c-6.39941 0 -12.7998 6.40039 -12.7998 12.7998v134.4c0 6.39941 6.40039 12.7998 12.7998 12.7998h38.4004z" />
    <glyph glyph-name="bullhorn-primary" unicode="&#xf0a1;" horiz-adv-x="576" 
d="M544 263.12c19.1494 -10.9326 32.0703 -31.4688 32.0703 -55.0801c0 -23.6104 -12.9209 -44.2275 -32.0703 -55.1602v110.24zM0 256c0 35.3223 28.6777 64 64 64h192v-224h-28.0801c-2.83105 -10.1973 -4.37598 -20.9141 -4.41016 -32
c0 -0.0449219 0.0576172 -0.189453 0.0576172 -0.234375c0 -29.0166 9.72559 -55.7803 26.0928 -77.2061c15.79 -20.7197 0.149414 -50.5596 -25.9004 -50.5596h-74.2793c-11.8809 0 -23.2109 6.37012 -28.4004 17.0596c-16.2803 33.4395 -25.5605 71.2236 -25.5605 110.889
v0.0517578c0.0224609 10.9307 0.757812 21.4521 2.18066 32h-33.7002c-35.3223 0 -64 28.6777 -64 64v96z" />
    <glyph glyph-name="briefcase-primary" unicode="&#xf0b1;" 
d="M464 320c25.5996 0 48 -22.4004 48 -48v-80h-512v80c0 25.5996 22.4004 48 48 48h80v48c0 25.5996 22.4004 48 48 48h160c25.5996 0 48 -22.4004 48 -48v-48h80zM320 320v32h-128v-32h128z" />
    <glyph glyph-name="lightbulb-primary" unicode="&#xf0eb;" horiz-adv-x="352" 
d="M96.0596 -6.34961l-0.0595703 38.3496h160v-38.3496c-0.03125 -6.51465 -2.03223 -12.6055 -5.41016 -17.6504l-17.0898 -25.7305c-5.73633 -8.61816 -15.5205 -14.2695 -26.6396 -14.2695h-61.71c-11.1221 0.00195312 -20.9062 5.65723 -26.6406 14.2803
l-17.0898 25.7197c-3.36035 5.04883 -5.34375 11.1396 -5.36035 17.6504z" />
    <glyph glyph-name="chart-pie-primary" unicode="&#xf200;" horiz-adv-x="544" 
d="M512 224.8c0.589844 -9.12012 -7.08984 -16.7998 -16.2305 -16.7998h-223.77v223.76c0 9.14062 7.67969 16.8301 16.7998 16.2402c119.46 -8.28027 214.92 -103.74 223.2 -223.2zM527.79 160c9.5498 0 17.4004 -8.38965 16.0303 -17.8203
c-7.83301 -55.1279 -34.4033 -104.476 -73.1299 -140.859c-6.19043 -5.85059 -16.1904 -5.32031 -22.1904 0.679688l-158 158h237.29z" />
    <glyph glyph-name="chart-line-primary" unicode="&#xf201;" 
d="M480 336v-118.05c0 -21.3799 -25.8496 -32.0898 -41 -17l-32.4004 32.3994l-96 -96c-5.79199 -5.79004 -13.791 -9.37402 -22.6201 -9.37402s-16.8369 3.58398 -22.6299 9.37402l-73.3496 73.4004l-46.0596 -46.0703
c-2.89648 -2.89648 -6.89746 -4.68945 -11.3135 -4.68945s-8.4209 1.79297 -11.3174 4.68945l-22.6191 22.6201c-2.89746 2.89648 -4.69043 6.89746 -4.69043 11.3125c0 4.41602 1.79297 8.42188 4.69043 11.3174l68.6895 68.6904
c5.79199 5.79102 13.791 9.37402 22.6211 9.37402c8.8291 0 16.8369 -3.58301 22.6289 -9.37402l73.3701 -73.3701l73.3701 73.3799l-32.3701 32.3701c-15.1201 15.1201 -4.41016 41 17 41h118c8.83105 0 16 -7.16895 16 -16z" />
    <glyph glyph-name="volume-slash-primary" unicode="&#xf2e2;" horiz-adv-x="640" 
d="M594.54 -60.6299l-588.36 454.729c-3.76562 2.92871 -6.18945 7.50195 -6.18945 12.6377c0 3.69434 1.27344 7.10352 3.37988 9.8125l19.6299 25.2705c2.92773 3.77051 7.50488 6.19922 12.6445 6.19922c3.7002 0 7.11426 -1.27734 9.8252 -3.38965l588.351 -454.729
c3.76855 -2.92871 6.19629 -7.50391 6.19629 -12.6426c0 -3.69141 -1.27246 -7.09863 -3.37695 -9.80762l-19.6396 -25.2705c-2.92871 -3.76855 -7.50293 -6.19434 -12.6406 -6.19434c-3.69727 0 -7.1084 1.27539 -9.81934 3.38477z" />
    <glyph glyph-name="route-highway-primary" unicode="&#xf61a;" horiz-adv-x="448" 
d="M6.59961 334.18c-1.6377 3.30469 -2.55957 7.02734 -2.55957 10.9629c0 5.24707 1.6377 10.1631 4.42969 14.167l41.1807 58.3701c5 7.08984 15.6699 13.1299 27.4893 8.61035c15.3643 -5.71777 31.9863 -8.84375 49.332 -8.84375
c0.291992 0 0.626953 -0.0478516 0.917969 -0.0458984c29.5107 0 59.8203 8.46973 83.1699 26.1094c3.73926 2.8125 8.3877 4.47949 13.4219 4.47949s9.71973 -1.66699 13.459 -4.47949c23.3496 -17.6396 53.6494 -26.1094 83.1592 -26.1094
c0.290039 -0.00195312 0.579102 -0.00292969 0.869141 -0.00292969c17.3516 0 34.0215 3.1748 49.3916 8.89258c11.7295 4.49023 22.4297 -1.42969 27.4893 -8.61035l41.1807 -58.3594c2.79199 -4.00488 4.42969 -8.87305 4.42969 -14.1211
c0 -3.93555 -0.921875 -7.70508 -2.55957 -11.0088c-12.1602 -25 -22.8408 -51.8809 -27 -78.1904h-380.82c-4.15039 26.3096 -14.8203 53.2197 -26.9805 78.1797z" />
    <glyph glyph-name="abacus-primary" unicode="&#xf640;" horiz-adv-x="576" 
d="M144 416c8.83105 0 16 -7.16895 16 -16v-96c0 -8.83105 -7.16895 -16 -16 -16h-32c-8.83105 0 -16 7.16895 -16 16v96c0 8.83105 7.16895 16 16 16h32zM240 416c8.83105 0 16 -7.16895 16 -16v-96c0 -8.83105 -7.16895 -16 -16 -16h-32c-8.83105 0 -16 7.16895 -16 16v96
c0 8.83105 7.16895 16 16 16h32zM144 256c8.83105 0 16 -7.16895 16 -16v-96c0 -8.83105 -7.16895 -16 -16 -16h-32c-8.83105 0 -16 7.16895 -16 16v96c0 8.83105 7.16895 16 16 16h32zM336 256c8.83105 0 16 -7.16895 16 -16v-96c0 -8.83105 -7.16895 -16 -16 -16h-32
c-8.83105 0 -16 7.16895 -16 16v96c0 8.83105 7.16895 16 16 16h32zM240 256c8.83105 0 16 -7.16895 16 -16v-96c0 -8.83105 -7.16895 -16 -16 -16h-32c-8.83105 0 -16 7.16895 -16 16v96c0 8.83105 7.16895 16 16 16h32zM464 416c8.83105 0 16 -7.16895 16 -16v-96
c0 -8.83105 -7.16895 -16 -16 -16h-32c-8.83105 0 -16 7.16895 -16 16v96c0 8.83105 7.16895 16 16 16h32zM144 96c8.83105 0 16 -7.16895 16 -16v-96c0 -8.83105 -7.16895 -16 -16 -16h-32c-8.83105 0 -16 7.16895 -16 16v96c0 8.83105 7.16895 16 16 16h32zM240 96
c8.83105 0 16 -7.16895 16 -16v-96c0 -8.83105 -7.16895 -16 -16 -16h-32c-8.83105 0 -16 7.16895 -16 16v96c0 8.83105 7.16895 16 16 16h32zM464 96c8.83105 0 16 -7.16895 16 -16v-96c0 -8.83105 -7.16895 -16 -16 -16h-32c-8.83105 0 -16 7.16895 -16 16v96
c0 8.83105 7.16895 16 16 16h32z" />
    <glyph glyph-name="analytics-primary" unicode="&#xf643;" horiz-adv-x="576" 
d="M400 128c8.83105 0 16 -7.16895 16 -16v-160c0 -8.83105 -7.16895 -16 -16 -16h-64c-8.83105 0 -16 7.16895 -16 16v160c0 8.83105 7.16895 16 16 16h64zM560 256c8.83105 0 16 -7.16895 16 -16v-288c0 -8.83105 -7.16895 -16 -16 -16h-64c-8.83105 0 -16 7.16895 -16 16
v288c0 8.83105 7.16895 16 16 16h64zM240 256c8.83105 0 16 -7.16895 16 -16v-288c0 -8.83105 -7.16895 -16 -16 -16h-64c-8.83105 0 -16 7.16895 -16 16v288c0 8.83105 7.16895 16 16 16h64zM80 96c8.83105 0 16 -7.16895 16 -16v-128c0 -8.83105 -7.16895 -16 -16 -16h-64
c-8.83105 0 -16 7.16895 -16 16v128c0 8.83105 7.16895 16 16 16h64z" />
    <glyph glyph-name="ankh-primary" unicode="&#xf644;" horiz-adv-x="320" 
d="M120 -40v152h80v-152c0 -13.2461 -10.7539 -24 -24 -24h-32c-13.2461 0 -24 10.7539 -24 24zM160 448c70.6904 0 128 -55.6299 128 -144c0 -37.6504 -15.54 -78 -36.6201 -112h-182.76c-21.0801 34 -36.6201 74.3496 -36.6201 112c0 88.3701 57.3096 144 128 144z
M160 203.13c20.8604 22.7305 48 66.21 48 100.87c0 39.4805 -18.3896 64 -48 64s-48 -24.5195 -48 -64c0 -34.6602 27.1396 -78.1504 48 -100.87z" />
    <glyph glyph-name="badge-dollar-primary" unicode="&#xf645;" 
d="M280 97.5596v-17.5596c0 -8.83105 -7.16895 -16 -16 -16h-16c-8.83105 0 -16 7.16895 -16 16v17.7305c-11.5771 1.30859 -22.4883 5.37695 -31.7803 11.46c-6.21973 4.10938 -6.81934 13.1094 -1.5498 18.3799l17.5205 17.5195
c3.73926 3.74023 9.30957 4.24023 14.1094 2c3.10059 -1.41699 6.5459 -2.20703 10.1748 -2.20703c0.0224609 0 0.0634766 -0.0126953 0.0849609 -0.0126953h32.7803c4.64551 0.00878906 8.41406 3.78223 8.41406 8.42969c0 3.8418 -2.57617 7.08594 -6.09375 8.10059
l-50.0703 14.2998c-22.25 6.34961 -40 24.71 -42.9102 47.6699c-0.298828 2.34668 -0.452148 4.7373 -0.452148 7.16504c0 28.8379 21.8008 52.582 49.7725 55.835v17.6299c0 8.83105 7.16895 16 16 16h16c8.83105 0 16 -7.16895 16 -16v-17.7305
c11.5771 -1.30859 22.4883 -5.37695 31.7803 -11.46c6.21973 -4.10938 6.81934 -13.1094 1.5498 -18.3799l-17.5205 -17.5195c-3.73926 -3.74023 -9.30957 -4.24023 -14.1094 -2c-3.10156 1.41699 -6.54883 2.20703 -10.1787 2.20703
c-0.0205078 0 -0.0605469 0.0126953 -0.0810547 0.0126953h-32.7803c-4.64551 -0.00878906 -8.41406 -3.78223 -8.41406 -8.42969c0 -3.8418 2.57617 -7.08594 6.09375 -8.10059l50.0703 -14.2998c22.25 -6.35938 40 -24.71 42.9102 -47.6699
c0.298828 -2.34668 0.452148 -4.7373 0.452148 -7.16504c0 -28.8379 -21.8008 -52.582 -49.7725 -55.835v-0.0703125z" />
    <glyph glyph-name="badge-percent-primary" unicode="&#xf646;" 
d="M192 288c17.6611 0 32 -14.3389 32 -32s-14.3389 -32 -32 -32s-32 14.3389 -32 32s14.3389 32 32 32zM204.28 106.35c-2.89648 -2.89648 -6.89746 -4.68945 -11.3135 -4.68945s-8.4209 1.79297 -11.3164 4.68945l-11.3105 11.3105
c-2.89648 2.89648 -4.68945 6.89648 -4.68945 11.3125s1.79297 8.4209 4.68945 11.3174l137.37 137.37c2.89648 2.89648 6.89648 4.68945 11.3125 4.68945s8.4209 -1.79297 11.3174 -4.68945l11.3105 -11.3105c2.89648 -2.89551 4.68945 -6.89648 4.68945 -11.3125
s-1.79297 -8.4209 -4.68945 -11.3174zM320 96c-17.6611 0 -32 14.3389 -32 32s14.3389 32 32 32s32 -14.3389 32 -32s-14.3389 -32 -32 -32z" />
    <glyph glyph-name="bible-primary" unicode="&#xf647;" horiz-adv-x="448" 
d="M96 64c-16 0 -32 -12.7998 -32 -32s12.7998 -32 32 -32h328c13.2461 0 24 -10.7539 24 -24v-16c0 -13.2461 -10.7539 -24 -24 -24h-328c-52.9834 0 -96 43.0166 -96 96v320c0 52.9834 43.0166 96 96 96h320c17.6611 0 32 -14.3389 32 -32v-328
c0 -13.2461 -10.7539 -24 -24 -24h-328zM144 304v-32c0 -8.83105 7.16895 -16 16 -16h48v-112c0 -8.83105 7.16895 -16 16 -16h32c8.83105 0 16 7.16895 16 16v112h48c8.83105 0 16 7.16895 16 16v32c0 8.83105 -7.16895 16 -16 16h-48v48c0 8.83105 -7.16895 16 -16 16h-32
c-8.83105 0 -16 -7.16895 -16 -16v-48h-48c-8.83105 0 -16 -7.16895 -16 -16z" />
    <glyph glyph-name="business-time-primary" unicode="&#xf64a;" horiz-adv-x="640" 
d="M326.82 128c-4.42285 -15.3105 -6.71582 -31.6357 -6.71582 -48.3623c0 -28.6973 6.97656 -55.7783 19.3252 -79.6377h-291.43c-25.5996 0 -48 22.4004 -48 48v144h192v-48c0 -8.83105 7.16895 -16 16 -16h118.82zM512 255.19
c-5.28027 0.479492 -10.5996 0.80957 -16 0.80957c-0.00976562 0 -0.183594 -0.0957031 -0.193359 -0.0957031c-37.4727 0 -72.208 -11.8086 -100.687 -31.9043h-395.12v80c0 25.5996 22.4004 48 48 48h80v48c0 25.5996 22.4004 48 48 48h160c25.5996 0 48 -22.4004 48 -48
v-48h80c25.5996 0 48 -22.4004 48 -48v-48.8096zM320 352v32h-128v-32h128zM550.29 96c5.35156 -0.0166016 9.69336 -4.3584 9.70996 -9.70996v-12.5801c-0.0166016 -5.35156 -4.3584 -9.69336 -9.70996 -9.70996h-60.5703
c-5.35156 0.0166016 -9.69336 4.3584 -9.70996 9.70996v76.5703c0.0166016 5.35156 4.3584 9.69336 9.70996 9.70996h12.5703c5.35156 -0.0166016 9.69336 -4.3584 9.70996 -9.70996v-54.2803h38.29z" />
    <glyph glyph-name="cabinet-filing-primary" unicode="&#xf64b;" 
d="M336 352c8.83105 0 16 -7.16895 16 -16v-40c0 -4.41504 -3.58496 -8 -8 -8h-16c-4.41504 0 -8 3.58496 -8 8v24h-128v-24c0 -4.41504 -3.58496 -8 -8 -8h-16c-4.41504 0 -8 3.58496 -8 8v40c0 8.83105 7.16895 16 16 16h160zM336 96c8.83105 0 16 -7.16895 16 -16v-40
c0 -4.41504 -3.58496 -8 -8 -8h-16c-4.41504 0 -8 3.58496 -8 8v24h-128v-24c0 -4.41504 -3.58496 -8 -8 -8h-16c-4.41504 0 -8 3.58496 -8 8v40c0 8.83105 7.16895 16 16 16h160z" />
    <glyph glyph-name="chart-line-down-primary" unicode="&#xf64d;" 
d="M464 128h-118c-21.3799 0 -32.0898 25.8496 -17 41l32.4004 32.4004l-73.4004 73.3496l-73.3701 -73.3799c-5.79199 -5.79102 -13.791 -9.375 -22.6201 -9.375c-8.83008 0 -16.8379 3.58398 -22.6299 9.375l-68.6895 68.6895
c-2.89746 2.89648 -4.69043 6.89746 -4.69043 11.3135s1.79297 8.4209 4.69043 11.3174l22.6191 22.6191c2.89648 2.89746 6.89746 4.69043 11.3135 4.69043s8.4209 -1.79297 11.3174 -4.69043l46.0596 -46.0596l73.3799 73.3799
c5.79199 5.79102 13.791 9.375 22.6211 9.375c8.8291 0 16.8369 -3.58398 22.6289 -9.375l96 -96l32.3701 32.3701c15.1201 15.1201 41 4.41016 41 -17v-118c0 -8.83105 -7.16895 -16 -16 -16z" />
    <glyph glyph-name="chart-pie-alt-primary" unicode="&#xf64e;" 
d="M512 224.8c0.620117 -9.10938 -7 -16.7998 -16.1904 -16.7998h-223.81v223.76c0 9.14062 7.67969 16.8301 16.7998 16.2402c119.46 -8.28027 214.92 -103.74 223.2 -223.2z" />
    <glyph glyph-name="city-primary" unicode="&#xf64f;" horiz-adv-x="640" 
d="M616 256c13.2461 0 24 -10.7539 24 -24v-264c0 -17.6611 -14.3389 -32 -32 -32h-576c-17.6611 0 -32 14.3389 -32 32v360c0 13.2461 10.7539 24 24 24h40v80c0 8.83105 7.16895 16 16 16h16c8.83105 0 16 -7.16895 16 -16v-80h64v80c0 8.83105 7.16895 16 16 16h16
c8.83105 0 16 -7.16895 16 -16v-80h64v72c0 13.2461 10.7539 24 24 24h144c13.2461 0 24 -10.7539 24 -24v-168h136zM128 44v40c0 6.62305 -5.37695 12 -12 12h-40c-6.62305 0 -12 -5.37695 -12 -12v-40c0 -6.62305 5.37695 -12 12 -12h40c6.62305 0 12 5.37695 12 12z
M128 140v40c0 6.62305 -5.37695 12 -12 12h-40c-6.62305 0 -12 -5.37695 -12 -12v-40c0 -6.62305 5.37695 -12 12 -12h40c6.62305 0 12 5.37695 12 12zM128 236v40c0 6.62305 -5.37695 12 -12 12h-40c-6.62305 0 -12 -5.37695 -12 -12v-40c0 -6.62305 5.37695 -12 12 -12h40
c6.62305 0 12 5.37695 12 12zM256 44v40c0 6.62305 -5.37695 12 -12 12h-40c-6.62305 0 -12 -5.37695 -12 -12v-40c0 -6.62305 5.37695 -12 12 -12h40c6.62305 0 12 5.37695 12 12zM256 140v40c0 6.62305 -5.37695 12 -12 12h-40c-6.62305 0 -12 -5.37695 -12 -12v-40
c0 -6.62305 5.37695 -12 12 -12h40c6.62305 0 12 5.37695 12 12zM256 236v40c0 6.62305 -5.37695 12 -12 12h-40c-6.62305 0 -12 -5.37695 -12 -12v-40c0 -6.62305 5.37695 -12 12 -12h40c6.62305 0 12 5.37695 12 12zM416 140v40c0 6.62305 -5.37695 12 -12 12h-40
c-6.62305 0 -12 -5.37695 -12 -12v-40c0 -6.62305 5.37695 -12 12 -12h40c6.62305 0 12 5.37695 12 12zM416 236v40c0 6.62305 -5.37695 12 -12 12h-40c-6.62305 0 -12 -5.37695 -12 -12v-40c0 -6.62305 5.37695 -12 12 -12h40c6.62305 0 12 5.37695 12 12zM416 332v40
c0 6.62305 -5.37695 12 -12 12h-40c-6.62305 0 -12 -5.37695 -12 -12v-40c0 -6.62305 5.37695 -12 12 -12h40c6.62305 0 12 5.37695 12 12zM576 44v40c0 6.62305 -5.37695 12 -12 12h-40c-6.62305 0 -12 -5.37695 -12 -12v-40c0 -6.62305 5.37695 -12 12 -12h40
c6.62305 0 12 5.37695 12 12zM576 140v40c0 6.62305 -5.37695 12 -12 12h-40c-6.62305 0 -12 -5.37695 -12 -12v-40c0 -6.62305 5.37695 -12 12 -12h40c6.62305 0 12 5.37695 12 12z" />
    <glyph glyph-name="comment-alt-dollar-primary" unicode="&#xf650;" 
d="M280 145.56v-17.5596c0 -8.83105 -7.16895 -16 -16 -16h-16c-8.83105 0 -16 7.16895 -16 16v17.7305c-11.5771 1.30859 -22.4883 5.37695 -31.7803 11.46c-6.21973 4.10938 -6.81934 13.1094 -1.5498 18.3799l17.5205 17.5195c3.73926 3.74023 9.30957 4.24023 14.1094 2
c3.10059 -1.41699 6.5459 -2.20703 10.1748 -2.20703c0.0224609 0 0.0634766 -0.0126953 0.0849609 -0.0126953h32.7803c4.64551 0.00878906 8.41406 3.78223 8.41406 8.42969c0 3.8418 -2.57617 7.08594 -6.09375 8.10059l-50.0703 14.2998
c-22.25 6.34961 -40 24.71 -42.9102 47.6699c-0.298828 2.34668 -0.452148 4.7373 -0.452148 7.16504c0 28.8379 21.8008 52.582 49.7725 55.835v17.6299c0 8.83105 7.16895 16 16 16h16c8.83105 0 16 -7.16895 16 -16v-17.7305
c11.5771 -1.30859 22.4883 -5.37695 31.7803 -11.46c6.21973 -4.10938 6.81934 -13.1094 1.5498 -18.3799l-17.5205 -17.5195c-3.73926 -3.74023 -9.30957 -4.24023 -14.1094 -2c-3.10156 1.41699 -6.54883 2.20703 -10.1787 2.20703
c-0.0205078 0 -0.0605469 0.0126953 -0.0810547 0.0126953h-32.7803c-4.64551 -0.00878906 -8.41406 -3.78223 -8.41406 -8.42969c0 -3.8418 2.57617 -7.08594 6.09375 -8.10059l50.0703 -14.2998c22.25 -6.35938 40 -24.71 42.9102 -47.6699
c0.304688 -2.36816 0.460938 -4.7832 0.460938 -7.2334c0 -28.8418 -21.8057 -52.5879 -49.7812 -55.8369z" />
    <glyph glyph-name="comment-dollar-primary" unicode="&#xf651;" 
d="M280 113.56v-17.5596c0 -8.83105 -7.16895 -16 -16 -16h-16c-8.83105 0 -16 7.16895 -16 16v17.7305c-11.5771 1.30859 -22.4883 5.37695 -31.7803 11.46c-6.21973 4.10938 -6.81934 13.1094 -1.5498 18.3799l17.5205 17.5195c3.73926 3.74023 9.30957 4.24023 14.1094 2
c3.10059 -1.41699 6.5459 -2.20703 10.1748 -2.20703c0.0224609 0 0.0634766 -0.0126953 0.0849609 -0.0126953h32.7803c4.64551 0.00878906 8.41406 3.78223 8.41406 8.42969c0 3.8418 -2.57617 7.08594 -6.09375 8.10059l-50.0703 14.2998
c-22.25 6.34961 -40 24.71 -42.9102 47.6699c-0.298828 2.34668 -0.452148 4.7373 -0.452148 7.16504c0 28.8379 21.8008 52.582 49.7725 55.835v17.6299c0 8.83105 7.16895 16 16 16h16c8.83105 0 16 -7.16895 16 -16v-17.7305
c11.5771 -1.30859 22.4883 -5.37695 31.7803 -11.46c6.21973 -4.10938 6.81934 -13.1094 1.5498 -18.3799l-17.5205 -17.5195c-3.73926 -3.74023 -9.30957 -4.24023 -14.1094 -2c-3.10156 1.41699 -6.54883 2.20703 -10.1787 2.20703
c-0.0205078 0 -0.0605469 0.0126953 -0.0810547 0.0126953h-32.7803c-4.64551 -0.00878906 -8.41406 -3.78223 -8.41406 -8.42969c0 -3.8418 2.57617 -7.08594 6.09375 -8.10059l50.0703 -14.2998c22.25 -6.35938 40 -24.71 42.9102 -47.6699
c0.304688 -2.36816 0.460938 -4.7832 0.460938 -7.2334c0 -28.8418 -21.8057 -52.5879 -49.7812 -55.8369z" />
    <glyph glyph-name="comments-alt-dollar-primary" unicode="&#xf652;" horiz-adv-x="576" 
d="M512 288c35.3223 0 64 -28.6777 64 -64v-160c0 -35.3223 -28.6777 -64 -64 -64h-32v-54.2305c-0.00292969 -5.37891 -4.37891 -9.74023 -9.75879 -9.74023c-2.16309 0 -4.16309 0.706055 -5.78125 1.90039l-82.79 62.0703h-125.67c-35.3223 0 -64 28.6777 -64 64v64h160
c52.9561 0.0605469 95.9395 43.0439 96 96v64h64zM192 208v16.29c-11.6953 0.603516 -22.5586 4.75195 -31.3701 11.3496c-1.88184 1.46484 -3.08984 3.74707 -3.08984 6.31445c0 2.29492 0.96875 4.36621 2.51953 5.82617l11.75 11.21
c1.45898 1.3291 3.41016 2.13574 5.53711 2.13574c1.70117 0 3.28223 -0.518555 4.59375 -1.40625c3.70508 -2.33984 8.11816 -3.71191 12.8193 -3.71973h28.1201c6.5 0 11.7998 5.91992 11.7998 13.1904c0 5.94922 -3.60938 11.1895 -8.76953 12.7295l-45 13.5
c-18.5801 5.58008 -31.5801 23.3896 -31.5801 43.3896c0 24.5205 19.0498 44.4404 42.6699 45.0703v16.1201c0 4.41504 3.58496 8 8 8h16c4.41504 0 8 -3.58496 8 -8v-16.29c11.6943 -0.603516 22.5547 -4.75586 31.3604 -11.3604
c1.88184 -1.46387 3.08984 -3.74609 3.08984 -6.31348c0 -2.2959 -0.969727 -4.36621 -2.52051 -5.82617l-11.75 -11.21c-1.45801 -1.3252 -3.40625 -2.12988 -5.53027 -2.12988c-1.7041 0 -3.28711 0.519531 -4.59961 1.41016
c-3.70312 2.34375 -8.11719 3.7168 -12.8193 3.71973h-28.1104c-6.5 0 -11.7998 -5.91992 -11.7998 -13.1904c0 -5.94922 3.60938 -11.1895 8.76953 -12.7295l45 -13.5c18.5801 -5.58008 31.5801 -23.3896 31.5801 -43.3896c0 -24.5303 -19.0498 -44.4404 -42.6699 -45.0703
v-16.1201c0 -4.41504 -3.58496 -8 -8 -8h-16c-4.41504 0 -8 3.58496 -8 8z" />
    <glyph glyph-name="comments-dollar-primary" unicode="&#xf653;" horiz-adv-x="576" 
d="M537.51 36c13.3604 -30.25 35.4902 -54.1602 35.7803 -54.4902c1.36328 -1.43457 2.2002 -3.37598 2.2002 -5.50977c0 -4.41211 -3.5791 -7.99414 -7.99023 -8c-36.5801 0 -66.9297 12.2695 -88.7305 25c-32.1992 -15.7598 -70.2695 -25 -111.27 -25
c-86.2305 0 -160.2 40.3701 -191.73 97.8799c10.5137 -1.1875 20.917 -1.81641 31.7305 -1.87988c132.34 0 240 86.1299 240 192c-0.00585938 6.85547 -0.451172 13.4492 -1.32031 20.0703c75.8398 -23.8701 129.33 -81.1299 129.33 -148.07
c0 -34.2803 -14.1396 -66 -38 -92zM191.51 160l-0.00976562 16.29c-11.6953 0.603516 -22.5586 4.75195 -31.3701 11.3496c-1.88184 1.46484 -3.08984 3.74707 -3.08984 6.31445c0 2.29492 0.96875 4.36621 2.51953 5.82617l11.75 11.21
c1.45898 1.3291 3.41016 2.13574 5.53711 2.13574c1.70117 0 3.28223 -0.518555 4.59375 -1.40625c3.70508 -2.33984 8.11816 -3.71191 12.8193 -3.71973h28.1201c6.5 0 11.7998 5.91992 11.7998 13.1904c0 5.94922 -3.60938 11.1895 -8.76953 12.7295l-45 13.5
c-18.5801 5.58008 -31.5801 23.3896 -31.5801 43.3896c0 24.5205 19.0498 44.4404 42.6699 45.0703v16.1201c0 4.41504 3.58496 8 8 8h16c4.41504 0 8 -3.58496 8 -8v-16.29c11.6973 -0.598633 22.5615 -4.74805 31.3701 -11.3496
c1.88184 -1.46484 3.08984 -3.74707 3.08984 -6.31445c0 -2.29492 -0.96875 -4.36621 -2.51953 -5.82617l-11.75 -11.21c-1.45898 -1.3291 -3.41016 -2.13574 -5.53711 -2.13574c-1.70117 0 -3.28223 0.518555 -4.59375 1.40625
c-3.70312 2.34375 -8.11719 3.7168 -12.8193 3.71973h-28.1104c-6.5 0 -11.7998 -5.91992 -11.7998 -13.1904c0 -5.94922 3.61035 -11.1895 8.76953 -12.7295l45 -13.5c18.5801 -5.58008 31.5801 -23.3896 31.5801 -43.3896c0 -24.5303 -19.0498 -44.4404 -42.6699 -45.0703
v-16.1201c0 -4.41504 -3.58398 -8 -8 -8h-16c-4.41504 0 -8 3.58496 -8 8z" />
    <glyph glyph-name="dharmachakra-primary" unicode="&#xf655;" 
d="M256 416c123.71 0 224 -100.29 224 -224s-100.29 -224 -224 -224s-224 100.29 -224 224s100.29 224 224 224zM369.14 78.8604c28.9531 28.8027 46.8613 68.6855 46.8613 112.711c0 0.143555 -0.000976562 0.286133 -0.000976562 0.428711
c-0.00292969 88.3037 -71.6738 159.972 -159.978 159.972c-88.3066 0 -160 -71.6934 -160 -160c0 -88.3057 71.6934 -160 160 -160c44.1543 0 84.1553 17.9248 113.117 46.8887zM256 288c52.9834 0 96 -43.0166 96 -96s-43.0166 -96 -96 -96s-96 43.0166 -96 96
s43.0166 96 96 96zM256 160c17.6611 0 32 14.3389 32 32s-14.3389 32 -32 32s-32 -14.3389 -32 -32s14.3389 -32 32 -32z" />
    <glyph glyph-name="empty-set-primary" unicode="&#xf656;" 
d="M507.31 398l-457.31 -457.32c-2.89648 -2.89648 -6.89648 -4.68945 -11.3125 -4.68945s-8.4209 1.79297 -11.3174 4.68945l-22.6797 22.6299c-2.89746 2.89648 -4.69043 6.89746 -4.69043 11.3135s1.79297 8.4209 4.69043 11.3174l457.369 457.369
c2.89648 2.89746 6.89746 4.69043 11.3135 4.69043s8.4209 -1.79297 11.3174 -4.69043l22.6191 -22.6191c2.91504 -2.89941 4.7207 -6.91211 4.7207 -11.3438c0 -4.43066 -1.80566 -8.44824 -4.7207 -11.3467z" />
    <glyph glyph-name="folder-minus-primary" unicode="&#xf65d;" 
d="M368 168v-16c0 -8.83105 -7.16895 -16 -16 -16h-192c-8.83105 0 -16 7.16895 -16 16v16c0 8.83105 7.16895 16 16 16h192c8.83105 0 16 -7.16895 16 -16z" />
    <glyph glyph-name="folder-times-primary" unicode="&#xf65f;" 
d="M171.15 210.91c-2.89746 2.89648 -4.69043 6.89648 -4.69043 11.3125s1.79297 8.4209 4.69043 11.3174l11.3096 11.3096c2.89648 2.89746 6.89648 4.69043 11.3125 4.69043s8.4209 -1.79297 11.3174 -4.69043l50.9102 -50.9092l50.9102 50.9092
c2.89648 2.89746 6.89648 4.69043 11.3125 4.69043s8.4209 -1.79297 11.3174 -4.69043l11.3096 -11.3096c2.89746 -2.89648 4.69043 -6.89648 4.69043 -11.3125s-1.79297 -8.4209 -4.69043 -11.3174l-50.9092 -50.9102l50.9092 -50.9102
c2.89746 -2.89648 4.69043 -6.89648 4.69043 -11.3125s-1.79297 -8.4209 -4.69043 -11.3174l-11.3096 -11.3096c-2.89648 -2.89746 -6.89648 -4.69043 -11.3125 -4.69043s-8.4209 1.79297 -11.3174 4.69043l-50.9102 50.9092l-50.9102 -50.9092
c-2.89648 -2.89746 -6.89648 -4.69043 -11.3125 -4.69043s-8.4209 1.79297 -11.3174 4.69043l-11.3096 11.3096c-2.89746 2.89648 -4.69043 6.89648 -4.69043 11.3125s1.79297 8.4209 4.69043 11.3174l50.9092 50.9102z" />
    <glyph glyph-name="folders-primary" unicode="&#xf660;" horiz-adv-x="640" 
d="M48 -64c-26.4922 0 -48 21.5078 -48 48v288c0 26.4922 21.5078 48 48 48h48v-208c0.0498047 -44.1299 35.8701 -79.9502 80 -80h336v-48c0 -26.4922 -21.5078 -48 -48 -48h-416z" />
    <glyph glyph-name="function-primary" unicode="&#xf661;" horiz-adv-x="640" 
d="M477.25 128l46.0596 -46.0596c2.89746 -2.89648 4.69043 -6.90137 4.69043 -11.3174s-1.79297 -8.41699 -4.69043 -11.3135l-22.6191 -22.6191c-2.89648 -2.89746 -6.90137 -4.69043 -11.3174 -4.69043s-8.41699 1.79297 -11.3135 4.69043l-46.0596 46.0596
l-46.0596 -46.0596c-2.89648 -2.89746 -6.90137 -4.69043 -11.3174 -4.69043s-8.41699 1.79297 -11.3135 4.69043l-22.6191 22.6191c-2.89746 2.89648 -4.69043 6.90137 -4.69043 11.3174s1.79297 8.41699 4.69043 11.3135l46.0596 46.0596l-46.0596 46.0596
c-2.89746 2.89648 -4.69043 6.90137 -4.69043 11.3174s1.79297 8.41699 4.69043 11.3135l22.6191 22.6191c2.89648 2.89746 6.90137 4.69043 11.3174 4.69043s8.41699 -1.79297 11.3135 -4.69043l46.0596 -46.0596l46.0596 46.0596
c2.89648 2.89746 6.90137 4.69043 11.3174 4.69043s8.41699 -1.79297 11.3135 -4.69043l22.6191 -22.6191c2.89746 -2.89648 4.69043 -6.90137 4.69043 -11.3174s-1.79297 -8.41699 -4.69043 -11.3135zM208 448c8.83105 0 16 -7.16895 16 -16v-48
c0 -8.83105 -7.16895 -16 -16 -16h-48c-13.2285 -0.0380859 -23.9619 -10.7715 -24 -24v-64h40c8.83105 0 16 -7.16895 16 -16v-48c0 -8.83105 -7.16895 -16 -16 -16h-40v-128c0 -57.3994 -46.6006 -104 -104 -104h-16c-8.83105 0 -16 7.16895 -16 16v48
c0 8.83105 7.16895 16 16 16h16c13.2285 0.0380859 23.9619 10.7715 24 24v128h-40c-8.83105 0 -16 7.16895 -16 16v48c0 8.83105 7.16895 16 16 16h40v64c0 57.3994 46.6006 104 104 104h48z" />
    <glyph glyph-name="funnel-dollar-primary" unicode="&#xf662;" horiz-adv-x="640" 
d="M507.09 104.58c18.5898 -5.58008 31.5801 -23.4199 31.5801 -43.3896c0 -24.5303 -19.04 -44.4404 -42.6699 -45.0703v-16.1201c0 -4.41504 -3.58496 -8 -8 -8h-16c-4.41504 0 -8 3.58496 -8 8v16.29c-11.6953 0.603516 -22.5586 4.75195 -31.3701 11.3496
c-1.88184 1.46484 -3.08984 3.74707 -3.08984 6.31445c0 2.29492 0.96875 4.36621 2.51953 5.82617l11.75 11.21c1.45898 1.3291 3.41016 2.13574 5.53711 2.13574c1.70117 0 3.28223 -0.518555 4.59375 -1.40625c3.70508 -2.33984 8.11816 -3.71191 12.8193 -3.71973
h28.1201c6.5 0 11.7998 5.91992 11.7998 13.1904c0 5.94922 -3.60938 11.1895 -8.76953 12.7295l-45 13.5c-18.5801 5.58008 -31.5801 23.3896 -31.5801 43.3896c0 24.5205 19.0498 44.4404 42.6699 45.0703v16.1201c0 4.41504 3.58496 8 8 8h16c4.41504 0 8 -3.58496 8 -8
v-16.29c11.6934 -0.600586 22.5537 -4.74902 31.3604 -11.3496c1.88184 -1.46484 3.08984 -3.74707 3.08984 -6.31445c0 -2.29492 -0.969727 -4.36621 -2.52051 -5.82617l-11.75 -11.21c-1.45898 -1.3291 -3.40918 -2.13574 -5.53613 -2.13574
c-1.70117 0 -3.28223 0.518555 -4.59375 1.40625c-3.70312 2.34375 -8.11719 3.7168 -12.8193 3.71973h-28.1104c-6.5 0 -11.7998 -5.91992 -11.7998 -13.1904c0 -5.94922 3.60938 -11.1895 8.76953 -12.7295zM288 96c0.0136719 -54.3887 22.7207 -103.509 59.2197 -138.35
c-10.75 -20.5703 -38.3594 -29.21 -59.2197 -13.5703l-80 60c-9.73242 7.29883 -16 18.9102 -16 32v155.92l-182.66 201.93c-19.9502 19.9502 -5.82031 54.0703 22.4004 54.0703h480.52c28.2207 0 42.4004 -34.0703 22.4004 -54.0703l-101.2 -111.87
c-83.4102 -20.8896 -145.46 -96.2695 -145.46 -186.06z" />
    <glyph glyph-name="gift-card-primary" unicode="&#xf663;" horiz-adv-x="576" 
d="M0 128h576v-96h-576v96zM184.27 272c-48.6699 0 -88.2695 39.4805 -88.2695 88s39.5996 88 88.2695 88c17.25 0 38.1006 -2.62988 61.8604 -22.1396c12.3604 -10.1406 25.5498 -24.75 41.8701 -46.75c16.2695 21.8896 29.3496 36.5195 41.5303 46.5801
c23.79 19.6592 44.7998 22.3096 62.2002 22.3096c48.6699 0 88.2695 -39.4805 88.2695 -88s-39.5996 -88 -88.2695 -88h-48.4805l62.4004 -51.71c2.89648 -2.89648 4.68945 -6.90137 4.68945 -11.3174s-1.79297 -8.41602 -4.68945 -11.3125l-11.3105 -11.3105
c-2.89648 -2.89648 -6.90137 -4.68945 -11.3174 -4.68945s-8.41602 1.79297 -11.3125 4.68945l-83.71 73.5801l-83.7197 -73.5898c-2.89648 -2.89648 -6.90137 -4.68945 -11.3174 -4.68945s-8.41699 1.79297 -11.3125 4.68945l-11.3105 11.3105
c-2.89648 2.89551 -4.68945 6.90039 -4.68945 11.3164s1.79297 8.41699 4.68945 11.3135l62.4102 51.7197h-48.4805zM391.73 400c-20.5303 0 -34.9307 -3.5 -86.6709 -80h86.6709c22.0762 0 40 17.9238 40 40s-17.9238 40 -40 40zM184.27 400
c-22.0762 0 -40 -17.9238 -40 -40s17.9238 -40 40 -40h86.6709c-51.8408 76.7002 -66.6709 80 -86.6709 80z" />
    <glyph glyph-name="hamsa-primary" unicode="&#xf665;" 
d="M509.34 140.75c1.70312 -3.90918 2.66113 -8.25684 2.66113 -12.79c0 -8.42969 -3.26562 -16.1016 -8.60059 -21.8203l-102.681 -110c-35.7197 -38.2197 -88.4102 -60.1396 -144.72 -60.1396s-109 21.9199 -144.71 60.1699l-102.69 110
c-5.33398 5.71777 -8.59961 13.4004 -8.59961 21.8301c0 17.6611 14.3389 32 32 32h64v208c0 22.0762 17.9238 40 40 40s40 -17.9238 40 -40v-134c0 -5.51953 4.48047 -10 10 -10h20c5.51953 0 10 4.48047 10 10v174c0 22.0762 17.9238 40 40 40s40 -17.9238 40 -40v-174
c0 -5.51953 4.48047 -10 10 -10h20c5.51953 0 10 4.48047 10 10v134c0 22.0762 17.9238 40 40 40s40 -17.9238 40 -40v-208h64c13.1357 -0.00390625 24.416 -7.91602 29.3398 -19.25zM256 32c53 0 96 64 96 64s-43 64 -96 64s-96 -64 -96 -64s43 -64 96 -64z" />
    <glyph glyph-name="integral-primary" unicode="&#xf667;" horiz-adv-x="384" 
 />
    <glyph glyph-name="intersection-primary" unicode="&#xf668;" horiz-adv-x="384" 
 />
    <glyph glyph-name="jedi-primary" unicode="&#xf669;" horiz-adv-x="576" 
d="M559 223.814c0.370117 -5.75586 1 -11.4521 1 -17.2588c-0.03125 -17.7988 -1.7959 -34.9932 -5.12988 -51.8262l-58.8721 -58.833h40.001c-42.6309 -94.1084 -137.645 -159.896 -248.008 -159.896c-4.26074 0 -8.54395 0.0966797 -12.8506 0.290039
c-104.004 4.7666 -193.887 69.4346 -235.158 159.606h39.9316l-58.6025 58.5625c-2.65918 12.8066 -4.39258 25.9619 -5.11035 39.375c-0.135742 3.52539 -0.204102 7.06836 -0.204102 10.6279c0 6.64453 0.234375 12.8262 0.704102 19.3525h47.2119l-41.3818 41.3535
c14.7969 66.583 53.9854 123.95 108.004 161.966c2.61035 1.87109 5.82031 2.98535 9.27051 2.99805c5.61914 -0.0351562 10.5625 -2.89453 13.4805 -7.24609c1.76367 -2.56836 2.79492 -5.67773 2.79492 -9.02637c0 -2.13184 -0.416016 -4.19336 -1.1748 -6.05371
c-6.3125 -15.8203 -9.84082 -33.166 -9.84082 -51.2266c0 -45.0908 21.001 -86.5244 57.7129 -113.667c4.07324 -2.96094 6.72461 -7.76367 6.72461 -13.1807c0 -4.85645 -2.1377 -9.20801 -5.51465 -12.1934c-26.5518 -23.9844 -41.1719 -56.4629 -41.1719 -91.5205
v-0.121094c0 -24.6035 7.30762 -47.6562 19.7607 -66.8955c22.251 -34.458 60.9219 -54.7949 102.004 -54.8652h6.37012c48.6709 -0.0898438 93.333 28.3721 112.384 73.1328c3.13184 7.34961 5.60449 15.251 7.21973 23.2656
c1.68066 8.11035 2.56348 16.5117 2.56348 25.1172c0 36.5322 -15.8574 69.2695 -41.125 91.8672c-3.38086 2.99023 -5.51367 7.35938 -5.51367 12.2236c0 5.4248 2.64551 10.2227 6.72363 13.1904c36.6621 27.1416 57.6924 68.5654 57.6924 113.656
c-0.0078125 18.0859 -3.55762 35.4443 -9.90039 51.2773c-0.761719 1.8623 -1.18164 3.90137 -1.18164 6.03613c0 3.34473 1.03223 6.47656 2.79199 9.04395c2.9209 4.34961 7.86816 7.20605 13.4902 7.23535c3.44238 -0.0166016 6.64551 -1.13086 9.25 -2.99805
c53.9199 -38.1787 93.042 -95.5752 107.904 -162.155l-41.252 -41.2139h47.002z" />
    <glyph glyph-name="kaaba-primary" unicode="&#xf66b;" horiz-adv-x="576" 
d="M301.81 334l274.19 -82.29v-228.39c0 -0.00585938 -0.0195312 -0.00878906 -0.0195312 -0.0136719c0 -15.25 -10.6914 -28.0234 -24.9805 -31.2266l-242.17 -53.7998c-6.72461 -1.49512 -13.5928 -2.28418 -20.7646 -2.28418s-14.1611 0.789062 -20.8857 2.28418
l-242.12 53.7998c-14.3184 3.18066 -25.0596 15.9688 -25.0596 31.2402v228.38l274.22 82.2998c4.36816 1.32129 8.99609 2.03125 13.793 2.03125s9.42871 -0.709961 13.7969 -2.03125zM128 217.89v16.5801l0.00195312 0.00292969c0 4.41504 -3.58496 8 -8 8
c-0.730469 0 -1.43945 -0.0986328 -2.1123 -0.282227l-80 -21.8203c-3.3916 -0.927734 -5.88965 -4.03223 -5.88965 -7.7168v-0.00292969v-16.5801l-0.00195312 -0.00292969c0 -4.41504 3.58496 -8 8 -8c0.730469 0 1.43945 0.0986328 2.1123 0.282227l80 21.8203
c3.3916 0.927734 5.88965 4.03223 5.88965 7.7168v0.00292969zM272 257.17v16.5801l0.00195312 0.00195312c0 4.41602 -3.58496 8 -8 8c-0.730469 0 -1.43945 -0.0976562 -2.1123 -0.282227l-96 -26.1797c-3.3916 -0.927734 -5.88965 -4.03223 -5.88965 -7.7168v-0.00292969
v-16.5703c0 -0.00488281 -0.00195312 -0.0078125 -0.00195312 -0.0126953c0 -4.41504 3.58398 -8 8 -8c0.730469 0 1.43945 0.0986328 2.1123 0.282227l96 26.1807c3.3916 0.926758 5.88965 4.03223 5.88965 7.7168v0.00292969zM416 231v16.5596l-0.00195312 0.00292969
c0 3.68457 -2.49609 6.79004 -5.8877 7.71777l-96 26.1797c-0.672852 0.183594 -1.37891 0.283203 -2.11035 0.283203c-4.41504 0 -8 -3.58496 -8 -8v-0.00292969v-16.5605l0.00195312 -0.00195312c0 -3.68457 2.49609 -6.79004 5.8877 -7.71777l96 -26.1797
c0.672852 -0.18457 1.37891 -0.283203 2.11035 -0.283203c4.41504 0 8 3.58398 8 8v0.00292969zM544 196.09v16.5605l-0.00195312 0.00195312c0 3.68457 -2.49609 6.79004 -5.8877 7.71777l-80 21.8203c-0.672852 0.183594 -1.37891 0.283203 -2.11035 0.283203
c-4.41504 0 -8 -3.58496 -8 -8v-0.00390625v-16.5596l0.00195312 -0.00195312c0 -3.68457 2.49609 -6.79102 5.8877 -7.71777l80 -21.8203c0.672852 -0.18457 1.37891 -0.283203 2.11035 -0.283203c4.41504 0 8 3.58398 8 8v0.00292969zM265 364.63l-265 -79.5098v49
v0.0126953c0 14.127 9.16895 26.1201 21.8799 30.3574l235.771 78.5801c9.53711 3.17871 19.7383 4.90039 30.3389 4.90039c10.5996 0 20.833 -1.72168 30.3711 -4.90039l235.76 -78.5801c12.7109 -4.2373 21.8799 -16.2334 21.8799 -30.3604v-49l-265 79.5
c-7.28711 2.1875 -15.0098 3.36328 -23.0059 3.36328c-7.99512 0 -15.707 -1.17578 -22.9941 -3.36328z" />
    <glyph glyph-name="keynote-primary" unicode="&#xf66c;" 
d="M508.62 166.76c2.14746 -4.2998 3.37695 -9.18066 3.37988 -14.3096v-24.4502c0 -17.6611 -14.3389 -32 -32 -32h-448c-17.6611 0 -32 14.3389 -32 32v24.4502c0.000976562 5.12988 1.22949 10.0107 3.37988 14.3096l51.7803 103.55
c5.25 10.502 16.0898 17.6895 28.6201 17.6904h344.439c12.5303 -0.000976562 23.3701 -7.18848 28.6201 -17.6904z" />
    <glyph glyph-name="khanda-primary" unicode="&#xf66d;" 
d="M291.05 218.49c17.4648 11.415 29.0068 31.0879 29.0068 53.4902c0 21.4355 -10.5742 40.4209 -26.7871 52.0195l20.1104 44.1904c32.7607 -19.5527 54.7207 -55.2129 54.7207 -96.1035c0 -41.8516 -23.0059 -78.373 -57.0508 -97.5967zM200.69 174.6
c-33.9229 19.2568 -56.8281 55.5283 -56.8281 97.2891c0 40.7979 21.8604 76.5303 54.498 96.1113l20.1592 -44.2002c-16.0918 -11.6123 -26.582 -30.4531 -26.582 -51.7949c0 -22.3125 11.457 -41.9688 28.8027 -53.4053zM415.81 382
c73.71 -40.2402 111.78 -123.85 90.21 -207.5c-7.25 -28.0898 -22.3799 -53.5898 -41.25 -75.5898l-52.5098 -61.3105c-2.93555 -3.4209 -7.30176 -5.57031 -12.1592 -5.57031c-2.70508 0 -5.25488 0.672852 -7.49023 1.86035l-79.3506 42.2305l-29.2598 -20.3701l47 -32.75
c1.58984 0.508789 3.2793 0.853516 5 1c13.2461 0 24 -10.7539 24 -24s-10.7539 -24 -24 -24c-12.0996 0 -21.6904 9.11035 -23.29 20.7598l-56.71 39.4902l-56.6699 -39.5c-1.63965 -11.6504 -11.2305 -20.7598 -23.3301 -20.7598c-13.2461 0 -24 10.7539 -24 24
s10.7539 24 24 24c1.7207 -0.146484 3.41016 -0.491211 5 -1l47 32.75l-29.2998 20.3701l-79.3506 -42.2305c-2.23535 -1.1875 -4.79785 -1.87891 -7.50391 -1.87891c-4.85645 0 -9.20996 2.16797 -12.1455 5.58887l-52.5098 61.3105
c-18.8701 22.0195 -34 47.5 -41.25 75.5898c-21.6201 83.6602 16.4492 167.27 90.1592 207.51c2.30078 1.28125 4.95703 2.00488 7.77539 2.00488c8.83105 0 16 -7.16895 16 -16c0 -3.16211 -0.918945 -6.11133 -2.50488 -8.59473
c-15.8975 -25.2295 -25.2002 -55.2646 -25.2002 -87.2607v-0.149414c0.213867 -55.2656 28.4092 -103.863 71.3105 -132.36l92.5195 -64.4092l92.4697 64.3594c42.8984 28.5137 71.083 77.1289 71.2705 132.41c0 0.0664062 -0.102539 0.301758 -0.102539 0.369141
c0 31.9961 -9.2002 61.8613 -25.0977 87.0908c-1.55566 2.4668 -2.44922 5.39453 -2.44922 8.52441c0 8.83105 7.16895 16 16 16c2.79785 0 5.42969 -0.719727 7.71875 -1.98438z" />
    <glyph glyph-name="lambda-primary" unicode="&#xf66e;" horiz-adv-x="448" 
d="M448 40v-48c0 -13.2461 -10.7539 -24 -24 -24h-81.5h-0.00585938c-12.126 0 -22.666 6.72656 -28.0938 16.6797l-182.9 335.32h-107.5c-13.2461 0 -24 10.7539 -24 24v48c0 13.2461 10.7539 24 24 24h145.5h0.00585938c12.126 0 22.666 -6.72656 28.0938 -16.6797
l182.9 -335.32h43.5c13.2461 0 24 -10.7539 24 -24z" />
    <glyph glyph-name="landmark-primary" unicode="&#xf66f;" 
d="M10.3799 355.89l234.39 90.1104c3.49316 1.30957 7.27441 2.02539 11.2217 2.02539s7.75684 -0.71582 11.249 -2.02539l234.38 -90.1104c6.06543 -2.27539 10.3867 -8.12988 10.3867 -14.9863c0 -0.00585938 -0.00683594 -0.00683594 -0.00683594 -0.0136719v-36.8896
c0 -8.83105 -7.16895 -16 -16 -16h-480c-8.83105 0 -16 7.16895 -16 16v36.9102c0 6.85547 4.31445 12.7041 10.3799 14.9795z" />
    <glyph glyph-name="lightbulb-dollar-primary" unicode="&#xf670;" horiz-adv-x="352" 
d="M96 32h160v-38.3496c-0.03125 -6.51465 -2.03223 -12.6055 -5.41016 -17.6504l-17.0898 -25.7197c-5.73438 -8.62305 -15.5186 -14.2783 -26.6396 -14.2803h-61.71c-11.126 0.00878906 -20.9121 5.67578 -26.6406 14.3096l-17.0898 25.6904
c-3.38086 5.04395 -5.38574 11.1357 -5.41992 17.6504v38.3496zM148.9 263.42c-18.5908 5.58008 -31.5801 23.4199 -31.5703 43.3896c0 24.5205 19.0498 44.4404 42.6699 45.0703v16.1201c0 4.41504 3.58496 8 8 8h16c4.41504 0 8 -3.58496 8 -8v-16.29
c11.6934 -0.600586 22.5537 -4.74902 31.3604 -11.3496c1.88184 -1.46484 3.08984 -3.74707 3.08984 -6.31445c0 -2.29492 -0.969727 -4.36621 -2.52051 -5.82617l-11.75 -11.21c-1.45898 -1.3291 -3.40918 -2.13574 -5.53613 -2.13574
c-1.70117 0 -3.28223 0.518555 -4.59375 1.40625c-3.70312 2.34375 -8.11719 3.7168 -12.8193 3.71973h-28.1104c-6.5 0 -11.7998 -5.91992 -11.7998 -13.1904c0 -5.94922 3.60938 -11.1895 8.76953 -12.7295l45 -13.5c18.5801 -5.58008 31.5801 -23.3896 31.5801 -43.3896
c0 -24.5303 -19.0498 -44.4404 -42.6699 -45.0703v-16.1201c0 -4.41504 -3.58496 -8 -8 -8h-16c-4.41504 0 -8 3.58496 -8 8v16.29c-11.6953 0.603516 -22.5586 4.75195 -31.3701 11.3496c-1.88184 1.46484 -3.08984 3.74707 -3.08984 6.31445
c0 2.29492 0.96875 4.36621 2.51953 5.82617l11.75 11.21c1.45898 1.3291 3.41016 2.13574 5.53711 2.13574c1.70117 0 3.28223 -0.518555 4.59375 -1.40625c3.70508 -2.33984 8.11816 -3.71191 12.8193 -3.71973h28.1104c6.5 0 11.7998 5.91992 11.7998 13.1904
c0 5.94922 -3.61035 11.1895 -8.76953 12.7295z" />
    <glyph glyph-name="lightbulb-exclamation-primary" unicode="&#xf671;" horiz-adv-x="352" 
d="M176 192c17.6611 0 32 -14.3389 32 -32s-14.3389 -32 -32 -32s-32 14.3389 -32 32s14.3389 32 32 32zM150.56 238.41l-12.7998 128c-0.0527344 0.52832 -0.0791016 1.04785 -0.0791016 1.58984c0 8.83008 7.16895 16 15.999 16h44.6406
c8.81152 -0.0224609 15.959 -7.16699 15.959 -15.9834c0 -0.541992 -0.0263672 -1.07812 -0.0791016 -1.60645l-12.7998 -128c-0.806641 -8.07715 -7.63184 -14.4102 -15.9199 -14.4102h-19c-8.28906 0 -15.1143 6.33301 -15.9209 14.4102zM96 32h160v-38.3496
c-0.03125 -6.51465 -2.03223 -12.6055 -5.41016 -17.6504l-17.0898 -25.7197c-5.73438 -8.62305 -15.5186 -14.2783 -26.6396 -14.2803h-61.71c-11.126 0.00878906 -20.9121 5.67578 -26.6406 14.3096l-17.0898 25.6904c-3.38086 5.04395 -5.38574 11.1357 -5.41992 17.6504
v38.3496z" />
    <glyph glyph-name="lightbulb-slash-primary" unicode="&#xf673;" horiz-adv-x="640" 
d="M3.37012 416.55l19.6299 25.2705c2.92773 3.77051 7.50488 6.19922 12.6445 6.19922c3.7002 0 7.11426 -1.27734 9.8252 -3.38965l588.351 -454.729c3.76855 -2.92871 6.19629 -7.50391 6.19629 -12.6426c0 -3.69141 -1.27246 -7.09863 -3.37695 -9.80762
l-19.6396 -25.2705c-2.92871 -3.76855 -7.50293 -6.19434 -12.6406 -6.19434c-3.69727 0 -7.1084 1.27539 -9.81934 3.38477l-588.36 454.729c-3.76562 2.92871 -6.18945 7.50195 -6.18945 12.6377c0 3.69434 1.27344 7.10352 3.37988 9.8125z" />
    <glyph glyph-name="mail-bulk-primary" unicode="&#xf674;" horiz-adv-x="576" 
d="M544 288c17.6611 0 32 -14.3389 32 -32v-192c0 -17.6611 -14.3389 -32 -32 -32h-192v134.4l-0.290039 -0.220703c-3.18262 32.3799 -30.5088 57.7832 -63.71 57.8203h-96v32c0 17.6611 14.3389 32 32 32h320zM512 160v64h-64v-64h64zM448 320h-224
c-35.3047 -0.0380859 -63.9619 -28.6953 -64 -64v-32h-96v192c0 17.6611 14.3389 32 32 32h320c17.6611 0 32 -14.3389 32 -32v-96z" />
    <glyph glyph-name="megaphone-primary" unicode="&#xf675;" horiz-adv-x="576" 
d="M560 416c8.83105 0 16 -7.16895 16 -16v-416c0 -8.83105 -7.16895 -16 -16 -16h-32c-8.83105 0 -16 7.16895 -16 16v416c0 8.83105 7.16895 16 16 16h32zM32 288c17.6611 0 32 -14.3389 32 -32v-128c0 -17.6611 -14.3389 -32 -32 -32s-32 14.3389 -32 32v128
c0 17.6611 14.3389 32 32 32z" />
    <glyph glyph-name="mosque-primary" unicode="&#xf678;" horiz-adv-x="640" 
d="M0 -32v320h128v-320c0 -17.6611 -14.3389 -32 -32 -32h-64c-17.6611 0 -32 14.3389 -32 32zM608 128c17.6611 0 32 -14.3389 32 -32v-128c0 -17.6611 -14.3389 -32 -32 -32h-32v64c0 17.6611 -14.3389 32 -32 32s-32 -14.3389 -32 -32v-64h-64v72c0 48 -48 72 -48 72
s-48 -24 -48 -72v-72h-64v64c0 17.6611 -14.3389 32 -32 32s-32 -14.3389 -32 -32v-64h-32c-17.6611 0 -32 14.3389 -32 32v128c0 17.6611 14.3389 32 32 32h416z" />
    <glyph glyph-name="om-primary" unicode="&#xf679;" 
d="M224 64c-0.0380859 35.3047 -28.6953 63.9619 -64 64h-33c-5.73438 0.344727 -10.6572 3.71582 -13.1699 8.5498l-16.1797 32.1807c-1.08008 2.16016 -1.68848 4.59668 -1.68848 7.17383c0 8.86328 7.17871 16.0771 16.0381 16.0957h31.9004
c26.4697 0.0253906 47.9521 21.5234 47.9521 48c0 26.4922 -21.5078 48 -48 48c-11.4355 0 -21.9736 -4.02441 -30.2227 -10.71c-2.66504 -2.13477 -6.0459 -3.41211 -9.72266 -3.41211c-3.55469 0 -6.85547 1.19434 -9.47754 3.20215l-26.1094 19.6396
c-3.88184 2.98535 -6.38477 7.6748 -6.38477 12.9443c0 4.74023 2.03223 9.00293 5.26465 11.9863c25.1094 23.7393 59.8594 34.71 96 28.7793c43.1602 -7.08008 79.4199 -40.6396 89.5195 -83.1895c2.10547 -8.60254 3.22168 -17.5918 3.22168 -26.8389
c0 -17.3018 -3.96191 -33.7461 -10.9414 -48.4014h46.8398h0.111328c9.86914 0 18.8096 4.0127 25.2686 10.5l24.25 24.25c18.082 18.0771 43.0537 29.2637 70.6162 29.2637c55.126 0 99.8975 -44.7617 99.9141 -99.8838v-100.13c0 -48.5303 -47.4805 -88 -96 -88
c-96 0 -96 64 -96 64v37.8799c0.0302734 4.38965 3.60352 7.94336 8 7.94336c2.50098 0 4.73242 -1.14355 6.2002 -2.94336c15.1094 -18.6299 42.3799 -42.8799 81.7998 -42.8799c13.2402 0 32 10.7695 32 24v100.13c-0.00292969 19.8057 -16.084 35.8838 -35.8896 35.8838
c-9.90039 0 -18.875 -4.01172 -25.3701 -10.5039l-24.25 -24.25c-17.9824 -18.0781 -42.875 -29.2754 -70.3623 -29.2754c-0.09375 0 -0.194336 0.015625 -0.288086 0.015625h-21.6895c11 -18.9004 17.8096 -40.5801 17.8096 -64c0 -70.5801 -57.4297 -128 -128 -128
c-118.83 0 -160.05 96 -159.96 150.82c0 8.7998 10.2598 12.7695 14.79 5.21973c22.7998 -38 49.1299 -92 145.15 -92c35.3184 0.00585938 63.999 28.6533 64.0596 63.96z" />
    <glyph glyph-name="omega-primary" unicode="&#xf67a;" 
d="M56.6104 32c-35.3408 43.6396 -56.5215 99.2061 -56.5215 159.681c0 0.0498047 -0.0888672 0.269531 -0.0888672 0.319336c0 151.18 131.74 272.18 286.45 254.23c112.74 -13.0801 205.67 -102.591 222.55 -214.83c11.4102 -75.7207 -10.75 -146.23 -53.6396 -199.4
h-131.36c4.67188 11.6973 12.6631 21.5986 22.9199 28.6201c41.7822 28.7852 69.0469 76.8604 69.0801 131.38c0 99.5098 -91.3203 178.1 -194.56 156.36c-62.4902 -13.1602 -112.101 -65.0801 -123 -128c-11.3008 -65.3604 17.46 -125.15 65.6797 -159.07
c10.5234 -7.24023 18.7695 -17.3486 23.7295 -29.29h-131.239z" />
    <glyph glyph-name="pastafarianism-primary" unicode="&#xf67b;" horiz-adv-x="640" 
d="M192 448c35.3223 0 64 -28.6777 64 -64s-28.6777 -64 -64 -64s-64 28.6777 -64 64s28.6777 64 64 64zM192 368c8.83105 0 16 7.16895 16 16s-7.16895 16 -16 16s-16 -7.16895 -16 -16s7.16895 -16 16 -16zM448 448c35.3223 0 64 -28.6777 64 -64s-28.6777 -64 -64 -64
s-64 28.6777 -64 64s28.6777 64 64 64zM448 368c8.83105 0 16 7.16895 16 16s-7.16895 16 -16 16s-16 -7.16895 -16 -16s7.16895 -16 16 -16z" />
    <glyph glyph-name="phone-office-primary" unicode="&#xf67d;" horiz-adv-x="576" 
d="M528 416c26.4922 0 48 -21.5078 48 -48v-384c0 -26.4922 -21.5078 -48 -48 -48h-480c-26.4922 0 -48 21.5078 -48 48v384c0 26.4922 21.5078 48 48 48h16v-352c0.0380859 -35.3047 28.6953 -63.9619 64 -64h64c35.3047 0.0380859 63.9619 28.6953 64 64v352h272zM384 16
v32c0 8.83105 -7.16895 16 -16 16h-32c-8.83105 0 -16 -7.16895 -16 -16v-32c0 -8.83105 7.16895 -16 16 -16h32c8.83105 0 16 7.16895 16 16zM384 144v32c0 8.83105 -7.16895 16 -16 16h-32c-8.83105 0 -16 -7.16895 -16 -16v-32c0 -8.83105 7.16895 -16 16 -16h32
c8.83105 0 16 7.16895 16 16zM512 16v32c0 8.83105 -7.16895 16 -16 16h-32c-8.83105 0 -16 -7.16895 -16 -16v-32c0 -8.83105 7.16895 -16 16 -16h32c8.83105 0 16 7.16895 16 16zM512 144v32c0 8.83105 -7.16895 16 -16 16h-32c-8.83105 0 -16 -7.16895 -16 -16v-32
c0 -8.83105 7.16895 -16 16 -16h32c8.83105 0 16 7.16895 16 16zM512 256v96h-192v-96h192z" />
    <glyph glyph-name="pi-primary" unicode="&#xf67e;" 
d="M512 376v-48c0 -13.2461 -10.7539 -24 -24 -24h-472c-14.2197 0 -21.3604 17.2305 -11.2803 27.3096l49.9404 49.9502c11.584 11.582 27.5908 18.7402 45.25 18.7402h388.09c13.2461 0 24 -10.7539 24 -24z" />
    <glyph glyph-name="place-of-worship-primary" unicode="&#xf67f;" horiz-adv-x="640" 
d="M416 345.37v-115l48.46 -29.0801c9.31836 -5.58887 15.5283 -15.7656 15.54 -27.4102v-237.88h-96v96c0 35.3223 -28.6777 64 -64 64s-64 -28.6777 -64 -64v-96h-96v237.88c0.000976562 11.6572 6.21387 21.8457 15.54 27.4404l48.46 29.0801v115
c0.00976562 8.82031 3.59082 16.8145 9.37988 22.5996l75.3105 75.3096c2.89551 2.89453 6.89355 4.68555 11.3076 4.68555c4.41309 0 8.41602 -1.79102 11.3115 -4.68555l75.3105 -75.3096c5.7959 -5.79199 9.37891 -13.7979 9.37988 -22.6299z" />
    <glyph glyph-name="podium-primary" unicode="&#xf680;" horiz-adv-x="448" 
d="M400 -16c8.83105 0 16 -7.16895 16 -16v-16c0 -8.83105 -7.16895 -16 -16 -16h-352c-8.83105 0 -16 7.16895 -16 16v16c0 8.83105 7.16895 16 16 16h352zM432 304c8.83105 0 16 -7.16895 16 -16v-16c0 -8.83105 -7.16895 -16 -16 -16h-416c-8.83105 0 -16 7.16895 -16 16
v16c0 8.83105 7.16895 16 16 16h49c6.66016 52.8496 45.8096 95.5195 96.6904 108c5.29297 20.6523 24.0254 35.9629 46.3096 36h64c26.4922 0 48 -21.5078 48 -48s-21.5078 -48 -48 -48h-64l-0.0185547 -0.00390625c-12.9492 0 -24.7002 5.16895 -33.3018 13.5537
c-31.1494 -7.25 -54.7998 -31.2598 -61 -61.5498h318.32z" />
    <glyph glyph-name="pray-primary" unicode="&#xf683;" horiz-adv-x="384" 
d="M201.22 179l-34.7998 -64.8701l109.86 -109.85c25.4893 -25.4902 5.7998 -68.2803 -28.2803 -68.2803h-208c-22.0762 0 -40 17.9238 -40 40s17.9238 40 40 40h91.5596l-44.8096 34.8896c-42.8799 27.3799 -57.5898 80.1104 -34.1904 123.75l49.3701 92
c11.1201 20.6504 32.1807 34.4404 56.3701 36.9199c24.7803 2.59082 48.5605 -6.93945 64 -25.3291l38.9102 -46.3105l57.4404 47c6.89844 5.64746 15.7158 9.03809 25.3184 9.03809c22.083 0 40.0107 -17.9287 40.0107 -40.0117
c0 -12.4795 -5.67383 -23.6064 -14.6396 -30.9463l-88 -72c-6.90039 -5.65723 -15.7236 -9.05371 -25.334 -9.05371c-12.2998 0 -23.3262 5.52734 -30.666 14.2734z" />
    <glyph glyph-name="praying-hands-primary" unicode="&#xf684;" horiz-adv-x="640" 
d="M32 -63.9199c-23.4805 0 -32 21.1797 -32 32v96c0.00292969 14.124 9.17188 26.1133 21.8799 30.3496l90.1201 30v80.2705v0.0878906c0 19.6172 5.97461 37.957 16.1201 53.1416l117.26 175.9c0.169922 0.269531 0.589844 0.25 0.790039 0.479492
c5.74121 8.2959 15.3242 13.7344 26.167 13.7344c17.5508 0 31.7998 -14.249 31.7998 -31.7998c0 -6.06934 -1.74219 -11.8076 -4.69629 -16.6338l-77.75 -129.61c-8.65234 -14.4014 -13.6904 -31.3613 -13.6904 -49.3701v-76.5498c0 -8.83105 7.16895 -16 16 -16
s16 7.16895 16 16v80c0 17.6611 14.3389 32 32 32s32 -14.3389 32 -32v-128c-0.172852 -53.2812 -35.9492 -98.2383 -84.75 -112.35l-179.19 -46.6201c-2.57617 -0.670898 -5.2793 -1.02734 -8.06445 -1.02734z" />
    <glyph glyph-name="presentation-primary" unicode="&#xf685;" horiz-adv-x="576" 
d="M560 448c8.83105 0 16 -7.16895 16 -16v-32c0 -8.83105 -7.16895 -16 -16 -16h-544c-8.83105 0 -16 7.16895 -16 16v32c0 8.83105 7.16895 16 16 16h544zM320 61.25l75.3096 -75.3096c2.89746 -2.89648 4.69043 -6.90137 4.69043 -11.3174
s-1.79297 -8.41699 -4.69043 -11.3135l-22.6191 -22.6191c-2.89648 -2.89746 -6.90137 -4.69043 -11.3174 -4.69043s-8.41699 1.79297 -11.3135 4.69043l-62.0596 62.0596l-62.0596 -62.0596c-2.89648 -2.89746 -6.90137 -4.69043 -11.3174 -4.69043
s-8.41699 1.79297 -11.3135 4.69043l-22.6191 22.6191c-2.89746 2.89648 -4.69043 6.90137 -4.69043 11.3174s1.79297 8.41699 4.69043 11.3135l75.3096 75.3096v34.75h64v-34.75z" />
    <glyph glyph-name="print-slash-primary" unicode="&#xf686;" horiz-adv-x="640" 
d="M636.64 -32.5498l-19.6396 -25.2705c-2.92871 -3.76855 -7.50293 -6.19434 -12.6406 -6.19434c-3.69727 0 -7.1084 1.27539 -9.81934 3.38477l-588.36 454.729c-3.76562 2.92871 -6.18945 7.50195 -6.18945 12.6377c0 3.69434 1.27344 7.10352 3.37988 9.8125
l19.6299 25.2705c2.92773 3.77051 7.50488 6.19922 12.6445 6.19922c3.7002 0 7.11426 -1.27734 9.8252 -3.38965l588.351 -454.729c3.76855 -2.92871 6.19629 -7.50391 6.19629 -12.6426c0 -3.69141 -1.27246 -7.09863 -3.37695 -9.80762z" />
    <glyph glyph-name="quran-primary" unicode="&#xf687;" horiz-adv-x="448" 
d="M96 64c-16 0 -32 -12.7998 -32 -32s12.7998 -32 32 -32h328c13.2461 0 24 -10.7539 24 -24v-16c0 -13.2461 -10.7539 -24 -24 -24h-328c-52.9834 0 -96 43.0166 -96 96v320c0 52.9834 43.0166 96 96 96h320c17.6611 0 32 -14.3389 32 -32v-328
c0 -13.2461 -10.7539 -24 -24 -24h-328zM304 304c-0.000976562 0 -0.000976562 0.00292969 -0.00195312 0.00292969c-1.27832 0 -2.38477 -0.744141 -2.9082 -1.82324l-11.1895 -22.6494l-25 -3.62988c-1.57715 -0.228516 -2.79492 -1.58691 -2.79492 -3.22754
c0 -0.914062 0.37793 -1.74023 0.984375 -2.33301l18.0898 -17.6299l-4.26953 -24.8896c-0.0332031 -0.1875 -0.0478516 -0.375 -0.0478516 -0.571289c0 -1.79395 1.45605 -3.25 3.25 -3.25c0.551758 0 1.07227 0.137695 1.52734 0.380859l22.3604 11.75l22.3604 -11.75
c0.455078 -0.243164 0.978516 -0.385742 1.53027 -0.385742c1.79395 0 3.25 1.45605 3.25 3.25c0 0.196289 -0.0175781 0.388672 -0.0507812 0.576172l-4.26953 24.8896l18.0898 17.6299c0.606445 0.592773 0.980469 1.41992 0.980469 2.33398
c0 1.63965 -1.21387 2.99805 -2.79102 3.22656l-25 3.62988l-11.1797 22.6494c-0.523438 1.0791 -1.62695 1.82031 -2.90527 1.82031h-0.0146484zM243.19 371.19c-0.0380859 0 -0.0146484 0.00976562 -0.0527344 0.00976562c-63.5479 0 -115.14 -51.5918 -115.14 -115.14
s51.5918 -115.14 115.14 -115.14c14.1533 0 27.7129 2.55859 40.2422 7.23926c2.6748 0.908203 4.60059 3.43945 4.60059 6.41992c0 3.74219 -3.03809 6.78027 -6.78027 6.78027c-0.650391 0 -3.12988 -0.209961 -4.12988 -0.209961
c-52.3545 0 -94.8604 42.5049 -94.8604 94.8594s42.5059 94.8604 94.8604 94.8604c1.04004 0 3.45996 -0.209961 4.12988 -0.209961c0.737305 -0.274414 1.53809 -0.427734 2.37012 -0.429688c0.0878906 -0.00390625 0.175781 -0.00585938 0.263672 -0.00585938
c3.74219 0 6.78027 3.03809 6.78027 6.78027s-3.03809 6.78027 -6.78027 6.78027c-0.0878906 0 -0.175781 -0.00195312 -0.263672 -0.00488281c-12.5439 4.74219 -26.1895 7.3877 -40.3799 7.41016z" />
    <glyph glyph-name="search-dollar-primary" unicode="&#xf688;" 
d="M235.13 248.58c18.6006 -5.58008 31.5898 -23.4199 31.5498 -43.3896c0 -24.5303 -19.0498 -44.4404 -42.6797 -45.0703v-16.1201c0 -4.41504 -3.58496 -8 -8 -8h-16c-4.41504 0 -8 3.58496 -8 8v16.29c-11.6797 0.611328 -22.5293 4.75879 -31.3301 11.3496
c-1.88184 1.46484 -3.08984 3.74707 -3.08984 6.31445c0 2.29492 0.96875 4.36621 2.51953 5.82617l11.7705 11.21c1.45898 1.3291 3.40918 2.13574 5.53711 2.13574c1.7002 0 3.28125 -0.518555 4.59277 -1.40625c3.69824 -2.33984 8.10547 -3.71289 12.7998 -3.71973
h28.0703c6.5 0 11.7998 5.91992 11.7998 13.1904c0 5.94922 -3.61035 11.1797 -8.76953 12.7295l-45 13.5c-18.5801 5.58008 -31.5801 23.3896 -31.5801 43.3896c0 24.5205 19.0498 44.4404 42.6797 45.0703v16.1201c0 4.41504 3.58496 8 8 8h16c4.41504 0 8 -3.58496 8 -8
v-16.29c11.7188 -0.591797 22.6035 -4.74121 31.4297 -11.3496c1.88281 -1.46484 3.08984 -3.74707 3.08984 -6.31445c0 -2.29492 -0.96875 -4.36621 -2.51953 -5.82617l-11.7803 -11.21c-1.45898 -1.3291 -3.40918 -2.13574 -5.53613 -2.13574
c-1.70117 0 -3.28223 0.518555 -4.59375 1.40625c-3.70312 2.34375 -8.11719 3.7168 -12.8203 3.71973h-28.1094c-6.5 0 -11.7998 -5.91992 -11.7998 -13.1904c0 -5.94922 3.60938 -11.1797 8.76953 -12.7295zM505 5.2998c4.30566 -4.35547 6.9668 -10.3496 6.9668 -16.9531
c0 -6.6543 -2.70117 -12.6826 -7.06641 -17.0469l-28.3008 -28.2998c-4.33008 -4.35547 -10.3311 -7.05371 -16.9521 -7.05371s-12.6172 2.69824 -16.9473 7.05371l-99.7002 99.7002c-4.32715 4.3418 -7 10.332 -7 16.9395v0.0605469v16.2998l36 36h16.2998
c0.0205078 0 0.0429688 0.00292969 0.0625 0.00292969c6.6084 0 12.5957 -2.67578 16.9375 -7.00293z" />
    <glyph glyph-name="search-location-primary" unicode="&#xf689;" 
d="M208 336c40.748 0 73.8301 -33.082 73.8301 -73.8301c0 -32.9697 -48.2598 -93.0498 -66.75 -114.86c-0.354492 -0.425781 -0.740234 -0.808594 -1.16992 -1.15918c-1.60156 -1.3418 -3.66797 -2.1582 -5.91895 -2.1582c-2.84375 0 -5.38965 1.29004 -7.08105 3.31738
c-18.4902 21.8604 -66.75 81.8604 -66.75 114.86c0 40.748 33.0918 73.8301 73.8398 73.8301zM208 240c13.2461 0 24 10.7539 24 24s-10.7539 24 -24 24s-24 -10.7539 -24 -24s10.7539 -24 24 -24zM505 5.2998c4.30566 -4.35547 6.9668 -10.3496 6.9668 -16.9531
c0 -6.6543 -2.70117 -12.6826 -7.06641 -17.0469l-28.3008 -28.2998c-4.33008 -4.35547 -10.3311 -7.05371 -16.9521 -7.05371s-12.6172 2.69824 -16.9473 7.05371l-99.7002 99.7002c-4.32715 4.3418 -7 10.332 -7 16.9395v0.0605469v16.2998l36 36h16.2998
c0.0205078 0 0.0429688 0.00292969 0.0625 0.00292969c6.6084 0 12.5957 -2.67578 16.9375 -7.00293z" />
    <glyph glyph-name="sigma-primary" unicode="&#xf68b;" horiz-adv-x="384" 
d="M288 312v8h-145.76l109.09 -128l-109.09 -128h145.76v8.55957v-104.56h-236c-28.6934 0.0078125 -51.9854 23.3057 -51.9854 52c0 11.4316 3.72266 22.0527 9.98535 30.6396l122.65 141.36l-122.65 141.4c-6.24414 8.5791 -9.92969 19.1396 -9.92969 30.5527
c0 28.6855 23.25 52.0234 51.9297 52.0469h236v-104z" />
    <glyph glyph-name="signal-alt-slash-primary" unicode="&#xf694;" horiz-adv-x="640" 
d="M636.64 -32.5498l-19.6396 -25.2705c-2.92871 -3.76855 -7.50293 -6.19434 -12.6406 -6.19434c-3.69727 0 -7.1084 1.27539 -9.81934 3.38477l-588.36 454.729c-3.76562 2.92871 -6.18945 7.50195 -6.18945 12.6377c0 3.69434 1.27344 7.10352 3.37988 9.8125
l19.6299 25.2705c2.92773 3.77051 7.50488 6.19922 12.6445 6.19922c3.7002 0 7.11426 -1.27734 9.8252 -3.38965l588.351 -454.729c3.76855 -2.92871 6.19629 -7.50391 6.19629 -12.6426c0 -3.69141 -1.27246 -7.09863 -3.37695 -9.80762z" />
    <glyph glyph-name="signal-slash-primary" unicode="&#xf695;" horiz-adv-x="640" 
d="M636.63 -32.54l-19.6299 -25.2695c-2.88965 -3.64941 -7.3584 -5.99219 -12.3691 -5.99219c-0.879883 0 -1.7207 0.0830078 -2.56055 0.22168c-0.667969 -0.1875 -1.36719 -0.330078 -2.07031 -0.419922h-2.55957c-0.805664 1.2666 -1.77246 2.38965 -2.90039 3.37012
l-588.36 454.729c-3.76562 2.92871 -6.18945 7.50195 -6.18945 12.6377c0 3.69434 1.27344 7.10352 3.37988 9.8125l19.6299 25.2705c2.92773 3.77051 7.50488 6.19922 12.6445 6.19922c3.7002 0 7.11426 -1.27734 9.8252 -3.38965l588.351 -454.729
c3.7627 -2.92871 6.18457 -7.50098 6.18457 -12.6338c0 -3.69141 -1.27148 -7.09766 -3.375 -9.80664z" />
    <glyph glyph-name="square-root-primary" unicode="&#xf697;" horiz-adv-x="576" 
 />
    <glyph glyph-name="square-root-alt-primary" unicode="&#xf698;" horiz-adv-x="576" 
d="M571.31 81.9404c2.89746 -2.89648 4.69043 -6.89746 4.69043 -11.3135s-1.79297 -8.4209 -4.69043 -11.3174l-22.6191 -22.6191c-2.89648 -2.89746 -6.89746 -4.69043 -11.3135 -4.69043s-8.4209 1.79297 -11.3174 4.69043l-46.0596 46.0596l-46.0596 -46.0596
c-2.89648 -2.89746 -6.89746 -4.69043 -11.3135 -4.69043s-8.4209 1.79297 -11.3174 4.69043l-22.6191 22.6191c-2.89746 2.89648 -4.69043 6.89746 -4.69043 11.3135s1.79297 8.4209 4.69043 11.3174l46.0596 46.0596l-46.0596 46.0596
c-2.89746 2.89648 -4.69043 6.89746 -4.69043 11.3135s1.79297 8.4209 4.69043 11.3174l22.6191 22.6191c2.89648 2.89746 6.89746 4.69043 11.3135 4.69043s8.4209 -1.79297 11.3174 -4.69043l46.0596 -46.0596l46.0596 46.0596
c2.89648 2.89746 6.89746 4.69043 11.3135 4.69043s8.4209 -1.79297 11.3174 -4.69043l22.6191 -22.6191c2.89746 -2.89648 4.69043 -6.89746 4.69043 -11.3135s-1.79297 -8.4209 -4.69043 -11.3174l-46.0596 -46.0596z" />
    <glyph glyph-name="star-and-crescent-primary" unicode="&#xf699;" 
d="M0 192c0 141.16 114.84 256 256 256c31.541 -0.0498047 61.8711 -5.93457 89.75 -16.4805c5.70898 -2.1416 9.77539 -7.65234 9.77539 -14.1045c0 -8.30859 -6.74902 -15.0488 -15.0557 -15.0547c-1.47949 0 -6.85938 0.459961 -9.17969 0.459961
c-116.29 0 -210.82 -94.5703 -210.82 -210.82s94.5303 -210.82 210.82 -210.82c2.29004 0 7.72949 0.459961 9.17969 0.459961c0.135742 0.00390625 0.272461 0.00585938 0.40918 0.00585938c8.27832 0 15 -6.72168 15 -15c0 -6.73047 -4.44922 -12.4287 -10.5586 -14.3252
c-27.7607 -10.4424 -57.9404 -16.2686 -89.3203 -16.3203c-141.16 0 -256 114.84 -256 256z" />
    <glyph glyph-name="synagogue-primary" unicode="&#xf69b;" horiz-adv-x="640" 
d="M468 338.59c7.32715 -5.86621 12 -14.873 12 -24.9795v-0.0107422v-377.6h-96v96c0 0.00976562 0.0585938 0.0205078 0.0585938 0.0302734c0 35.3232 -28.6768 64 -64 64c-3.68359 0 -7.29492 -0.311523 -10.8086 -0.910156
c-31.4697 -5.12012 -53.25 -34.6699 -53.25 -66.5498v-92.5703h-96v377.59c0 0.00683594 -0.0224609 0.00195312 -0.0224609 0.0078125c0 10.1074 4.69531 19.126 12.0225 24.9922l128 102.41c5.47656 4.38477 12.4678 7.00781 20.0225 7.00781
s14.501 -2.62305 19.9775 -7.00781zM392.06 225.44l-19.1895 30.5596l19.2002 30.5596c0.454102 0.726562 0.720703 1.59082 0.720703 2.51074c0 2.60742 -2.11426 4.72461 -4.7207 4.72949h-38.9502l-25.1201 40c-0.834961 1.33301 -2.31055 2.21973 -3.99707 2.21973
s-3.16797 -0.886719 -4.00293 -2.21973l-25.1201 -40h-38.9395c-2.60645 -0.00488281 -4.71875 -2.12695 -4.71875 -4.73438c0 -0.919922 0.263672 -1.7793 0.71875 -2.50586l19.1992 -30.5596l-19.1992 -30.5596
c-0.459961 -0.728516 -0.729492 -1.59668 -0.729492 -2.52051c0 -2.60449 2.11523 -4.71973 4.71973 -4.71973h0.00976562h38.9395l25.1201 -40c0.834961 -1.33301 2.31055 -2.21973 3.99707 -2.21973s3.16797 0.886719 4.00293 2.21973l25.1201 40h38.9395
c2.60645 0.00488281 4.71875 2.12695 4.71875 4.73438c0 0.919922 -0.263672 1.7793 -0.71875 2.50586z" />
    <glyph glyph-name="tally-primary" unicode="&#xf69c;" horiz-adv-x="640" 
d="M639.21 278.51c0.505859 -1.55664 0.779297 -3.21777 0.779297 -4.94238c0 -7.10449 -4.63574 -13.1318 -11.0488 -15.2178l-598.101 -193.56c-1.55664 -0.505859 -3.21777 -0.779297 -4.94238 -0.779297c-7.10449 0 -13.1318 4.63574 -15.2178 11.0488l-9.88965 30.4307
c-0.505859 1.55664 -0.779297 3.21777 -0.779297 4.94238c0 7.10449 4.63574 13.1318 11.0488 15.2178l598.101 193.56c1.55664 0.505859 3.21777 0.779297 4.94238 0.779297c7.10449 0 13.1318 -4.63574 15.2178 -11.0488z" />
    <glyph glyph-name="theta-primary" unicode="&#xf69e;" horiz-adv-x="384" 
d="M192 344c-27.8203 0 -48.2402 -18.8301 -60.46 -34.5996c-10.6699 -13.7803 -19.1797 -30.4004 -25.2998 -49.4004c-6.62402 -21.0039 -10.2451 -43.3389 -10.2451 -66.5195c0 -0.494141 0.00195312 -0.987305 0.00488281 -1.48047
c-0.00292969 -0.486328 0.0429688 -0.955078 0.0429688 -1.44141c0 -23.1816 3.57324 -45.5342 10.1973 -66.5391c6.12012 -19 14.6299 -35.6191 25.2998 -49.3994c12.2197 -15.79 32.6396 -34.6201 60.46 -34.6201s48.2402 18.8301 60.46 34.5996
c10.6699 13.7803 19.1797 30.4004 25.2998 49.4004c6.62402 21.0039 10.2451 43.3389 10.2451 66.5195c0 0.494141 -0.00195312 0.987305 -0.00488281 1.48047c0.00292969 0.486328 -0.0429688 0.955078 -0.0429688 1.44141c0 23.1816 -3.57324 45.5342 -10.1973 66.5391
c-6.12012 19 -14.6299 35.6191 -25.2998 49.3994c-12.2197 15.79 -32.6396 34.6201 -60.46 34.6201zM192 440c107.66 0 192 -108.94 192 -248s-84.3398 -248 -192 -248s-192 108.94 -192 248s84.3398 248 192 248z" />
    <glyph glyph-name="tilde-primary" unicode="&#xf69f;" 
 />
    <glyph glyph-name="torii-gate-primary" unicode="&#xf6a1;" 
d="M376.45 416c48.5918 0.00292969 94.8242 11.6396 135.55 32v-96c0 -17.6611 -14.3389 -32 -32 -32h-448c-17.6611 0 -32 14.3389 -32 32v96c40.7256 -20.3604 86.958 -31.9971 135.55 -32h240.9zM496 256c8.83105 0 16 -7.16895 16 -16v-32
c0 -8.83105 -7.16895 -16 -16 -16h-480c-8.83105 0 -16 7.16895 -16 16v32c0 8.83105 7.16895 16 16 16h480z" />
    <glyph glyph-name="union-primary" unicode="&#xf6a2;" horiz-adv-x="384" 
 />
    <glyph glyph-name="user-chart-primary" unicode="&#xf6a3;" horiz-adv-x="640" 
d="M160 128c-52.9834 0 -96 43.0166 -96 96s43.0166 96 96 96s96 -43.0166 96 -96s-43.0166 -96 -96 -96zM208 96c61.8145 0 112 -50.1855 112 -112c0 -26.4922 -21.5078 -48 -48 -48h-224c-26.4922 0 -48 21.5078 -48 48c0 61.8145 50.1855 112 112 112h3.80957
c13.9307 -4.83008 28.6406 -8 44.1904 -8s30.2598 3.16992 44.1904 8h3.80957z" />
    <glyph glyph-name="user-crown-primary" unicode="&#xf6a4;" horiz-adv-x="448" 
d="M313.6 144c74.1777 0 134.4 -60.2227 134.4 -134.4v-25.5996c0 -26.4922 -21.5078 -48 -48 -48h-352c-26.4922 0 -48 21.5078 -48 48v25.5996c0 74.1777 60.2227 134.4 134.4 134.4h16.71c22.1377 -10.2129 47.0771 -15.9111 73.0391 -15.9111
s50.6025 5.69824 72.7402 15.9111h16.71zM224 176c-70.6455 0 -128 57.3545 -128 128v16h256v-16c0 -70.6455 -57.3545 -128 -128 -128z" />
    <glyph glyph-name="users-crown-primary" unicode="&#xf6a5;" horiz-adv-x="640" 
d="M320 192c-52.9834 0 -96 43.0166 -96 96v16h192v-16c0 -52.9834 -43.0166 -96 -96 -96zM396.8 160c63.5811 0 115.2 -51.6191 115.2 -115.2v-28.7998c0 -26.4922 -21.5078 -48 -48 -48h-288c-26.4922 0 -48 21.5078 -48 48v28.7998c0 63.5811 51.6191 115.2 115.2 115.2
h8.30957c20.8506 -10 43.8906 -16 68.4902 -16s47.6504 6 68.4902 16h8.30957z" />
    <glyph glyph-name="value-absolute-primary" unicode="&#xf6a6;" 
d="M377.3 264.78l-72.7803 -72.7803l72.7803 -72.7803c4.13965 -4.14062 6.70117 -9.85938 6.70117 -16.1719c0 -6.31152 -2.56152 -12.0361 -6.70117 -16.1777l-16.1699 -16.1699c-4.1416 -4.13965 -9.85938 -6.70117 -16.1719 -6.70117
c-6.31152 0 -12.0371 2.56152 -16.1777 6.70117l-72.7803 72.7803l-72.7803 -72.7803c-4.14062 -4.13965 -9.85938 -6.70117 -16.1719 -6.70117c-6.31152 0 -12.0361 2.56152 -16.1777 6.70117l-16.1699 16.1699c-4.13965 4.1416 -6.70117 9.85938 -6.70117 16.1719
c0 6.31152 2.56152 12.0371 6.70117 16.1777l72.7803 72.7803l-72.7803 72.7803c-4.13965 4.14062 -6.70117 9.85938 -6.70117 16.1719c0 6.31152 2.56152 12.0361 6.70117 16.1777l16.1699 16.1699c4.1416 4.13965 9.85938 6.70117 16.1719 6.70117
c6.31152 0 12.0371 -2.56152 16.1777 -6.70117l72.7803 -72.7803l72.7803 72.7803c4.14062 4.13965 9.85938 6.70117 16.1719 6.70117c6.31152 0 12.0361 -2.56152 16.1777 -6.70117l16.1699 -16.1699c4.13965 -4.1416 6.70117 -9.85938 6.70117 -16.1719
c0 -6.31152 -2.56152 -12.0371 -6.70117 -16.1777z" />
    <glyph glyph-name="vihara-primary" unicode="&#xf6a7;" horiz-adv-x="640" 
d="M160 320l-27.3096 16.3096c-2.89453 2.89648 -4.69824 6.8877 -4.69824 11.3008c0 6.26562 3.60742 11.6934 8.85742 14.3193l183.15 86.0703l183.15 -86.0801c5.25 -2.62598 8.84473 -8.04688 8.84473 -14.3125c0 -4.41309 -1.79102 -8.41113 -4.68555 -11.3076
l-27.3096 -16.2998h-320zM632.88 47.29c4.2998 -2.87012 7.13281 -7.74609 7.13281 -13.2988c0 -6.2666 -3.61035 -11.6963 -8.8623 -14.3213l-55.1504 -19.6699h-512l-55.1602 19.6699c-5.24902 2.62598 -8.85742 8.03516 -8.85742 14.2998
c0 5.55371 2.83594 10.4512 7.1377 13.3203l88.8799 48.71h448zM40.8799 177.69c-5.25 2.625 -8.89844 8.03516 -8.89844 14.2998c0 6.26562 3.6084 11.6943 8.8584 14.3193l119.16 49.6904h320l119.16 -49.6904c5.25 -2.625 8.8584 -8.03516 8.8584 -14.2998
c0 -6.26562 -3.6084 -11.6943 -8.8584 -14.3193l-55.1602 -17.6904h-448z" />
    <glyph glyph-name="volume-primary" unicode="&#xf6a8;" horiz-adv-x="480" 
d="M338.23 268.87c27.3066 -14.7969 45.8672 -43.6016 45.8672 -76.8154c0 -33.2148 -18.5605 -62.1279 -45.8672 -76.9248c-3.42871 -1.8877 -7.41797 -2.99219 -11.6055 -2.99219c-13.25 0 -24.0078 10.7568 -24.0078 24.0068c0 9.06348 5.03223 16.96 12.4531 21.0459
c12.4648 6.62402 20.9619 19.6963 20.9619 34.7852c0 15.0898 -8.49707 28.21 -20.9619 34.834c-7.4209 4.08594 -12.4023 11.9531 -12.4023 21.0156c0 13.25 10.7568 24.0068 24.0078 24.0068c4.1875 0 8.12598 -1.07422 11.5547 -2.96191zM394.23 348.24
c51.6611 -32.874 85.9629 -90.4102 85.9629 -156.125s-34.3018 -123.481 -85.9629 -156.355c-3.70898 -2.35938 -8.11914 -3.7666 -12.8359 -3.7666c-8.54297 0 -16.0479 4.48535 -20.2842 11.2266c-2.35645 3.74121 -3.76074 8.18066 -3.76074 12.9248
c0 8.57324 4.45312 16.1143 11.1699 20.4355c38.2275 24.2402 63.623 66.7598 63.623 115.335c0 48.5742 -25.3955 91.2646 -63.623 115.505c-6.71484 4.32324 -11.126 11.876 -11.126 20.4492c0 4.74316 1.3623 9.16992 3.7168 12.9111
c4.22559 6.74902 11.7383 11.2012 20.2812 11.2012c4.72363 0 9.12891 -1.37305 12.8389 -3.74121z" />
    <glyph glyph-name="volume-mute-primary" unicode="&#xf6a9;" 
d="M324.72 237.64c-2.91992 2.92188 -4.72656 6.95508 -4.72656 11.4082c0 4.45215 1.80664 8.49121 4.72656 11.4121l22.8203 22.8203c2.9209 2.91992 6.95508 4.72656 11.4072 4.72656c4.45312 0 8.49121 -1.80664 11.4131 -4.72656l45.6396 -45.6406l45.6396 45.6406
c2.92188 2.91992 6.95508 4.72656 11.4082 4.72656c4.45215 0 8.49121 -1.80664 11.4121 -4.72656l22.8203 -22.8203c2.91992 -2.9209 4.72656 -6.95508 4.72656 -11.4072c0 -4.45312 -1.80664 -8.49121 -4.72656 -11.4131l-45.6406 -45.6396l45.6406 -45.6396
c2.91992 -2.92188 4.72656 -6.95508 4.72656 -11.4082c0 -4.45215 -1.80664 -8.49121 -4.72656 -11.4121l-22.8203 -22.8203c-2.9209 -2.91992 -6.95508 -4.72656 -11.4072 -4.72656c-4.45312 0 -8.49121 1.80664 -11.4131 4.72656l-45.6396 45.6406l-45.6299 -45.6299
c-2.92188 -2.91992 -6.95508 -4.72754 -11.4082 -4.72754c-4.45215 0 -8.49023 1.80762 -11.4121 4.72754l-22.8193 22.8193c-2.91992 2.92188 -4.72754 6.95508 -4.72754 11.4082c0 4.45215 1.80762 8.49023 4.72754 11.4121l45.6299 45.6299z" />
    <glyph glyph-name="wifi-slash-primary" unicode="&#xf6ac;" horiz-adv-x="640" 
d="M636.64 -32.5498l-19.6396 -25.2705c-2.92871 -3.76855 -7.50293 -6.19434 -12.6406 -6.19434c-3.69727 0 -7.1084 1.27539 -9.81934 3.38477l-588.36 454.729c-3.76562 2.92871 -6.18945 7.50195 -6.18945 12.6377c0 3.69434 1.27344 7.10352 3.37988 9.8125
l19.6299 25.2705c2.92773 3.77051 7.50488 6.19922 12.6445 6.19922c3.7002 0 7.11426 -1.27734 9.8252 -3.38965l588.36 -454.729c3.76562 -2.92871 6.19043 -7.50195 6.19043 -12.6377c0 -3.69434 -1.27441 -7.10352 -3.38086 -9.8125z" />
    <glyph glyph-name="volume-down-secondary" unicode="&#x10f027;" horiz-adv-x="384" 
d="M0 120v144c0 13.2461 10.7539 24 24 24h102.06l89 89c15 15 41 4.49023 41 -17v-336c0 -21.4404 -25.9395 -32 -41 -17l-89 88.9502h-102.06c-13.2461 0 -24 10.7539 -24 24v0.0498047z" />
    <glyph glyph-name="volume-up-secondary" unicode="&#x10f028;" horiz-adv-x="576" 
d="M0 120v144c0 13.2461 10.7539 24 24 24h102.06l89 88.9502c15 15 41 4.49023 41 -17v-335.95c0 -21.4404 -25.9395 -32 -41 -17l-89 88.9502h-102.06c-13.2461 0 -24 10.7539 -24 24v0.0498047z" />
    <glyph glyph-name="chart-bar-secondary" unicode="&#x10f080;" 
d="M512 48v-32c0 -8.83105 -7.16895 -16 -16 -16h-464c-17.6611 0 -32 14.3389 -32 32v336c0 8.83105 7.16895 16 16 16h32c8.83105 0 16 -7.16895 16 -16v-304h432c8.83105 0 16 -7.16895 16 -16z" />
    <glyph glyph-name="bullhorn-secondary" unicode="&#x10f0a1;" horiz-adv-x="576" 
d="M544 0c0 -9.21973 -7.08008 -32 -32 -32h-0.0253906c-7.54297 0 -14.502 2.62695 -19.9746 7l-85 68c-33.4629 26.6797 -74.5449 44.8096 -119 50.79v228.37c44.4541 5.98242 85.5361 24.1123 119 50.79l85 68.0498c5.46387 4.37207 12.3926 6.98828 19.9277 6.98828
c0.0166016 0 0.0556641 0.0117188 0.0722656 0.0117188c25 0 32 -23.2598 32 -32v-416z" />
    <glyph glyph-name="briefcase-secondary" unicode="&#x10f0b1;" 
d="M320 160h192v-144c0 -25.5996 -22.4004 -48 -48 -48h-416c-25.5996 0 -48 22.4004 -48 48v144h192v-48c0 -8.83105 7.16895 -16 16 -16h96c8.83105 0 16 7.16895 16 16v48z" />
    <glyph glyph-name="lightbulb-secondary" unicode="&#x10f0eb;" horiz-adv-x="352" 
d="M175.45 448c0.222656 0.000976562 0.399414 -0.0849609 0.62207 -0.0849609c97.082 0 175.9 -78.8184 175.9 -175.9c0 -44.3271 -16.4326 -84.8467 -43.5322 -115.795c-16.5205 -18.8496 -42.3604 -58.2295 -52.21 -91.4502
c-0.0400391 -0.269531 -0.110352 -0.519531 -0.110352 -0.779297h-160.24c-0.0400391 0.259766 -0.110352 0.519531 -0.110352 0.779297c-9.84961 33.2305 -35.6895 72.6006 -52.21 91.4502c-27.0918 30.8213 -43.5596 71.3115 -43.5596 115.531v0.249023
c0 93 73.4404 175.69 175.45 176zM176 352c8.83105 0 16 7.16895 16 16s-7.16895 16 -16 16c-61.7842 -0.0664062 -111.934 -50.2158 -112 -112c0 -8.83105 7.16895 -16 16 -16s16 7.16895 16 16c0.0498047 44.1299 35.8701 79.9502 80 80z" />
    <glyph glyph-name="chart-pie-secondary" unicode="&#x10f200;" horiz-adv-x="544" 
d="M379.86 4.12988c6.84961 -6.84961 6.33008 -18.4795 -1.57031 -24.0801c-38.2031 -27.166 -85.0215 -43.4766 -135.29 -44.0498c-128.17 -1.58984 -238.5 103.49 -242.86 231.63c-4.23926 124.771 86.8604 228.88 206.021 245.72
c9.4502 1.34082 17.8398 -6.50977 17.8398 -16.0596v-237.29z" />
    <glyph glyph-name="chart-line-secondary" unicode="&#x10f201;" 
d="M512 48v-32c0 -8.83105 -7.16895 -16 -16 -16h-464c-17.6611 0 -32 14.3389 -32 32v336c0 8.83105 7.16895 16 16 16h32c8.83105 0 16 -7.16895 16 -16v-304h432c8.83105 0 16 -7.16895 16 -16z" />
    <glyph glyph-name="volume-slash-secondary" unicode="&#x10f2e2;" horiz-adv-x="640" 
d="M393.11 340.78c4.22559 6.74902 11.7285 11.2422 20.2715 11.2422c4.72363 0 9.13867 -1.41406 12.8486 -3.78223c51.6709 -32.9043 85.9766 -90.6982 85.9766 -156.44c0 -32.5381 -8.71387 -63.21 -23.4668 -89.7998l-38.6504 29.9004
c8.85938 18.1055 13.834 38.4521 13.834 59.9521c0 48.5811 -25.1748 91.3203 -63.4043 115.567c-6.71484 4.32324 -11.166 11.8652 -11.166 20.4385c0 4.74316 1.40234 9.18066 3.75684 12.9219zM453.79 387.57c-6.66895 4.31152 -11.0371 11.7529 -11.0371 20.2783
c0 13.3564 10.8438 24.2002 24.2002 24.2002c4.95215 0 9.55957 -1.49121 13.3965 -4.04883c77.001 -50.3926 127.445 -137.533 127.445 -236.344c0 -54.626 -15.5596 -105.646 -42.4854 -148.866l-38.5195 29.7803c20.7412 34.8975 33.0449 75.752 33.0449 119.26
c0 81.8916 -42.2119 154.001 -106.045 195.74zM347.07 226.81c-7.41992 4.08594 -12.4121 11.9424 -12.4121 21.0059c0 13.25 10.7568 24.0068 24.0068 24.0068c4.1875 0 8.12598 -1.07422 11.5547 -2.96191c27.2412 -14.8701 45.6729 -43.6895 45.7803 -76.8604
c-0.0078125 -10.4141 -1.88281 -20.4365 -5.25977 -29.6904l-42.9199 33.1807c-1.30762 13.541 -9.33887 25.1328 -20.75 31.3193zM288 257.18l-90.7002 70.1299l49.7002 49.6904c15 15 41 4.45996 41 -17v-102.82zM32 264c0 8.67969 4.86035 15.9502 11.7598 20.1602
l244.24 -188.76v-71.4004c0 -21.4697 -26 -32 -41 -17l-88.9404 89h-102.06c-13.2461 0 -24 10.7539 -24 24v144z" />
    <glyph glyph-name="route-highway-secondary" unicode="&#x10f61a;" horiz-adv-x="448" 
d="M428.4 178.79c37.9395 -56.5205 18.5498 -139.43 -38.8105 -166l-165.59 -76.79l-165.59 76.75c-57.3604 26.5996 -76.75 109.51 -38.8105 166c8.69043 13.0918 14.2373 28.667 15.4004 45.25h378c1.16504 -16.5693 6.71094 -32.1318 15.4004 -45.21z" />
    <glyph glyph-name="abacus-secondary" unicode="&#x10f640;" horiz-adv-x="576" 
d="M192 8h-32v48h32v-48zM160 376h32v-48h-32v48zM256 216h32v-48h-32v48zM160 216h32v-48h-32v48zM256 8v48h160v-48h-160zM352 168v48h128v-48h-128zM544 448c17.6611 0 32 -14.3389 32 -32v-464c0 -8.83105 -7.16895 -16 -16 -16h-32c-8.83105 0 -16 7.16895 -16 16v464
c0 17.6611 14.3389 32 32 32zM416 376v-48h-160v48h160zM32 448c17.6611 0 32 -14.3389 32 -32v-464c0 -8.83105 -7.16895 -16 -16 -16h-32c-8.83105 0 -16 7.16895 -16 16v464c0 17.6611 14.3389 32 32 32z" />
    <glyph glyph-name="analytics-secondary" unicode="&#x10f643;" horiz-adv-x="576" 
d="M510.62 355.37l-95.3203 -76.2803c0.402344 -2.31934 0.639648 -4.6709 0.700195 -7.08984c0 -26.4922 -21.5078 -48 -48 -48s-48 21.5078 -48 48c0.0595703 2.42383 0.299805 4.7793 0.709961 7.09961l-95.3301 76.2705
c-5.26953 -2.16016 -11.0371 -3.35156 -17.0811 -3.35156c-4.35742 0 -8.5918 0.606445 -12.5791 1.76172l-101.5 -101.5c1.02441 -3.89453 1.56934 -7.98242 1.56934 -12.1963c0 -26.4375 -21.4629 -47.9004 -47.8994 -47.9004
c-26.4375 0 -47.9004 21.4629 -47.9004 47.9004c0 26.4365 21.4629 47.8994 47.9004 47.8994c0.0351562 0 0.0742188 0.0166016 0.110352 0.0166016c4.24902 -0.0595703 8.36621 -0.680664 12.2803 -1.78027l101.5 101.5c-1.09961 3.91406 -1.7207 8.03125 -1.78027 12.2803
c0 26.4922 21.5078 48 48 48s48 -21.5078 48 -48c-0.0595703 -2.42383 -0.299805 -4.7793 -0.709961 -7.09961l95.3203 -76.2607c5.3623 2.16113 11.2197 3.35156 17.3516 3.35156c6.13281 0 12.0449 -1.19043 17.4082 -3.35156l95.3398 76.2705
c-0.405273 2.31836 -0.645508 4.6709 -0.709961 7.08984c-0.000976562 0.12207 -0.000976562 0.244141 -0.000976562 0.366211c0 26.6904 21.6689 48.3594 48.3594 48.3594s48.3604 -21.6689 48.3604 -48.3594s-21.6699 -48.3604 -48.3604 -48.3604
c-6.25 0 -12.252 1.20117 -17.7383 3.36426z" />
    <glyph glyph-name="ankh-secondary" unicode="&#x10f644;" horiz-adv-x="320" 
d="M296 192c13.2461 0 24 -10.7539 24 -24v-32c0 -13.2461 -10.7539 -24 -24 -24h-272c-13.2461 0 -24 10.7539 -24 24v32c0 13.2461 10.7539 24 24 24h272z" />
    <glyph glyph-name="badge-dollar-secondary" unicode="&#x10f645;" 
d="M512 192c0 -37.7119 -23.7354 -69.8877 -57.0996 -82.4004c5.02246 -11.0674 7.79199 -23.3828 7.79199 -36.3193c0 -48.5684 -39.4316 -88 -88 -88c-12.9365 0 -25.2246 2.79688 -36.292 7.81934c-12.5107 -33.3691 -44.6533 -57.1475 -82.3691 -57.1475
s-69.9209 23.7783 -82.4316 57.1475c-11.0674 -5.02246 -23.3828 -7.79199 -36.3193 -7.79199c-48.5684 0 -88 39.4316 -88 88c0 12.9365 2.79688 25.2246 7.81934 36.292c-33.3691 12.5107 -57.1475 44.6533 -57.1475 82.3691s23.7783 69.9209 57.1475 82.4316
c-5.02246 11.0674 -7.79199 23.3828 -7.79199 36.3193c0 48.5684 39.4316 88 88 88c12.9365 0 25.2246 -2.79688 36.292 -7.81934c12.5107 33.3691 44.6533 57.1475 82.3691 57.1475s69.9209 -23.7783 82.4316 -57.1475c11.0674 5.02246 23.3828 7.79199 36.3193 7.79199
c48.5684 0 88 -39.4316 88 -88c0 -12.9365 -2.79688 -25.2246 -7.81934 -36.292c33.3643 -12.5127 57.0996 -44.6885 57.0996 -82.4004zM280 97.5596c27.9756 3.24902 49.7812 26.9951 49.7812 55.8369c0 2.4502 -0.15625 4.86523 -0.460938 7.2334
c-2.91016 22.96 -20.6602 41.3105 -42.9102 47.6699l-50.0703 14.2998c-3.51758 1.01465 -6.09375 4.25879 -6.09375 8.10059c0 4.64746 3.76855 8.4209 8.41406 8.42969h32.7803c0.0205078 0 0.0605469 -0.0126953 0.0810547 -0.0126953
c3.62988 0 7.07715 -0.790039 10.1787 -2.20703c4.7998 -2.24023 10.3701 -1.74023 14.1094 2l17.5205 17.5195c5.26953 5.27051 4.66992 14.2705 -1.5498 18.3799c-9.29199 6.08301 -20.2031 10.1514 -31.7803 11.46v17.7305c0 8.83105 -7.16895 16 -16 16h-16
c-8.83105 0 -16 -7.16895 -16 -16v-17.6299c-27.9717 -3.25293 -49.7725 -26.9971 -49.7725 -55.835c0 -2.42773 0.15332 -4.81836 0.452148 -7.16504c2.91016 -22.96 20.6602 -41.3203 42.9102 -47.6699l50.0703 -14.2998
c3.51758 -1.01465 6.09375 -4.25879 6.09375 -8.10059c0 -4.64746 -3.76855 -8.4209 -8.41406 -8.42969h-32.7803c-0.0214844 0 -0.0625 0.0126953 -0.0849609 0.0126953c-3.62891 0 -7.07422 0.790039 -10.1748 2.20703c-4.7998 2.24023 -10.3701 1.74023 -14.1094 -2
l-17.5205 -17.5195c-5.26953 -5.27051 -4.66992 -14.2705 1.5498 -18.3799c9.29199 -6.08301 20.2031 -10.1514 31.7803 -11.46v-17.7305c0 -8.83105 7.16895 -16 16 -16h16c8.83105 0 16 7.16895 16 16v17.5596z" />
    <glyph glyph-name="badge-percent-secondary" unicode="&#x10f646;" 
d="M512 192c0 -37.7119 -23.7354 -69.8877 -57.0996 -82.4004c5.02246 -11.0674 7.79199 -23.3828 7.79199 -36.3193c0 -48.5684 -39.4316 -88 -88 -88c-12.9365 0 -25.2246 2.79688 -36.292 7.81934c-12.5107 -33.3691 -44.6533 -57.1475 -82.3691 -57.1475
s-69.9209 23.7783 -82.4316 57.1475c-11.0674 -5.02246 -23.3828 -7.79199 -36.3193 -7.79199c-48.5684 0 -88 39.4316 -88 88c0 12.9365 2.79688 25.2246 7.81934 36.292c-33.3691 12.5107 -57.1475 44.6533 -57.1475 82.3691s23.7783 69.9209 57.1475 82.4316
c-5.02246 11.0674 -7.79199 23.3828 -7.79199 36.3193c0 48.5684 39.4316 88 88 88c12.9365 0 25.2246 -2.79688 36.292 -7.81934c12.5107 33.3691 44.6533 57.1475 82.3691 57.1475s69.9209 -23.7783 82.4316 -57.1475c11.0674 5.02246 23.3828 7.79199 36.3193 7.79199
c48.5684 0 88 -39.4316 88 -88c0 -12.9365 -2.79688 -25.2246 -7.81934 -36.292c33.3643 -12.5127 57.0996 -44.6885 57.0996 -82.4004zM192 288c-17.6611 0 -32 -14.3389 -32 -32s14.3389 -32 32 -32s32 14.3389 32 32s-14.3389 32 -32 32zM204.28 106.35l137.37 137.37
c2.89648 2.89648 4.68945 6.90137 4.68945 11.3174s-1.79297 8.41699 -4.68945 11.3125l-11.3105 11.3105c-2.89648 2.89648 -6.90137 4.68945 -11.3174 4.68945s-8.41602 -1.79297 -11.3125 -4.68945l-137.37 -137.37
c-2.89648 -2.89648 -4.68945 -6.90137 -4.68945 -11.3174s1.79297 -8.41602 4.68945 -11.3125l11.3105 -11.3105c2.89551 -2.89648 6.90039 -4.68945 11.3164 -4.68945s8.41699 1.79297 11.3135 4.68945zM320 96c17.6611 0 32 14.3389 32 32s-14.3389 32 -32 32
s-32 -14.3389 -32 -32s14.3389 -32 32 -32z" />
    <glyph glyph-name="bible-secondary" unicode="&#x10f647;" horiz-adv-x="448" 
d="M96 0c-19.2002 0 -32 12.7998 -32 32s16 32 32 32h319.33c-1.92969 -16.2402 -1.75977 -48.3799 0.530273 -64h-319.86z" />
    <glyph glyph-name="business-time-secondary" unicode="&#x10f64a;" horiz-adv-x="640" 
d="M496 224c0.0273438 0 0.0527344 0.00195312 0.0800781 0.00195312c79.4316 0 143.92 -64.4883 143.92 -143.92v-0.0820312c0 -79.4756 -64.5244 -144 -144 -144s-144 64.5244 -144 144s64.5244 144 144 144zM560 73.71v12.5801
c-0.0166016 5.35156 -4.3584 9.69336 -9.70996 9.70996h-38.29v54.2803c-0.0166016 5.35156 -4.3584 9.69336 -9.70996 9.70996h-12.5703c-5.35156 -0.0166016 -9.69336 -4.3584 -9.70996 -9.70996v-76.5703c0.0166016 -5.35156 4.3584 -9.69336 9.70996 -9.70996h60.5703
c5.35156 0.0166016 9.69336 4.3584 9.70996 9.70996z" />
    <glyph glyph-name="cabinet-filing-secondary" unicode="&#x10f64b;" 
d="M0 -32v224h512v-224c0 -17.6611 -14.3389 -32 -32 -32h-448c-17.6611 0 -32 14.3389 -32 32zM160 80v-40c0 -4.41504 3.58496 -8 8 -8h16c4.41504 0 8 3.58496 8 8v24h128v-24c0 -4.41504 3.58496 -8 8 -8h16c4.41504 0 8 3.58496 8 8v40c0 8.83105 -7.16895 16 -16 16
h-160c-8.83105 0 -16 -7.16895 -16 -16zM480 448c17.6611 0 32 -14.3389 32 -32v-192h-512v192c0 17.6611 14.3389 32 32 32h448zM352 296v40c0 8.83105 -7.16895 16 -16 16h-160c-8.83105 0 -16 -7.16895 -16 -16v-40c0 -4.41504 3.58496 -8 8 -8h16
c4.41504 0 8 3.58496 8 8v24h128v-24c0 -4.41504 3.58496 -8 8 -8h16c4.41504 0 8 3.58496 8 8z" />
    <glyph glyph-name="chart-line-down-secondary" unicode="&#x10f64d;" 
d="M512 48v-32c0 -8.83105 -7.16895 -16 -16 -16h-464c-17.6611 0 -32 14.3389 -32 32v336c0 8.83105 7.16895 16 16 16h32c8.83105 0 16 -7.16895 16 -16v-304h432c8.83105 0 16 -7.16895 16 -16z" />
    <glyph glyph-name="chart-pie-alt-secondary" unicode="&#x10f64e;" 
d="M461.29 160c9.54004 0 17.3896 -8.38965 16.0596 -17.8398c-16.8193 -119.08 -120.779 -210.16 -245.42 -206.03c-124.02 4.07031 -227.729 107.771 -231.8 231.8c-4.08984 124.641 87 228.601 206 245.42c9.48047 1.33008 17.8701 -6.50977 17.8701 -16.0596v-237.29
h237.29z" />
    <glyph glyph-name="city-secondary" unicode="&#x10f64f;" horiz-adv-x="640" 
d="M116 96c6.62305 0 12 -5.37695 12 -12v-40c0 -6.62305 -5.37695 -12 -12 -12h-40c-6.62305 0 -12 5.37695 -12 12v40c0 6.62305 5.37695 12 12 12h40zM116 192c6.62305 0 12 -5.37695 12 -12v-40c0 -6.62305 -5.37695 -12 -12 -12h-40c-6.62305 0 -12 5.37695 -12 12v40
c0 6.62305 5.37695 12 12 12h40zM116 288c6.62305 0 12 -5.37695 12 -12v-40c0 -6.62305 -5.37695 -12 -12 -12h-40c-6.62305 0 -12 5.37695 -12 12v40c0 6.62305 5.37695 12 12 12h40zM244 96c6.62305 0 12 -5.37695 12 -12v-40c0 -6.62305 -5.37695 -12 -12 -12h-40
c-6.62305 0 -12 5.37695 -12 12v40c0 6.62305 5.37695 12 12 12h40zM244 192c6.62305 0 12 -5.37695 12 -12v-40c0 -6.62305 -5.37695 -12 -12 -12h-40c-6.62305 0 -12 5.37695 -12 12v40c0 6.62305 5.37695 12 12 12h40zM244 288c6.62305 0 12 -5.37695 12 -12v-40
c0 -6.62305 -5.37695 -12 -12 -12h-40c-6.62305 0 -12 5.37695 -12 12v40c0 6.62305 5.37695 12 12 12h40zM564 96c6.62305 0 12 -5.37695 12 -12v-40c0 -6.62305 -5.37695 -12 -12 -12h-40c-6.62305 0 -12 5.37695 -12 12v40c0 6.62305 5.37695 12 12 12h40zM564 192
c6.62305 0 12 -5.37695 12 -12v-40c0 -6.62305 -5.37695 -12 -12 -12h-40c-6.62305 0 -12 5.37695 -12 12v40c0 6.62305 5.37695 12 12 12h40z" />
    <glyph glyph-name="comment-alt-dollar-secondary" unicode="&#x10f650;" 
d="M448 448c35.3223 0 64 -28.6777 64 -64v-288c0 -35.3223 -28.6777 -64 -64 -64h-144l-124.87 -93.6504c-1.99219 -1.47168 -4.46582 -2.34766 -7.12988 -2.34766c-6.62207 0 -11.999 5.37598 -12 11.998v84h-96c-35.3223 0 -64 28.6777 -64 64v288
c0 35.3223 28.6777 64 64 64h384zM280 145.56c27.9756 3.24902 49.7812 26.9951 49.7812 55.8369c0 2.4502 -0.15625 4.86523 -0.460938 7.2334c-2.91016 22.96 -20.6602 41.3105 -42.9102 47.6699l-50.0703 14.2998c-3.51758 1.01465 -6.09375 4.25879 -6.09375 8.10059
c0 4.64746 3.76855 8.4209 8.41406 8.42969h32.7803c0.0205078 0 0.0605469 -0.0126953 0.0810547 -0.0126953c3.62988 0 7.07715 -0.790039 10.1787 -2.20703c4.7998 -2.24023 10.3701 -1.74023 14.1094 2l17.5205 17.5195
c5.26953 5.27051 4.66992 14.2705 -1.5498 18.3799c-9.29199 6.08301 -20.2031 10.1514 -31.7803 11.46v17.7305c0 8.83105 -7.16895 16 -16 16h-16c-8.83105 0 -16 -7.16895 -16 -16v-17.6299c-27.9717 -3.25293 -49.7725 -26.9971 -49.7725 -55.835
c0 -2.42773 0.15332 -4.81836 0.452148 -7.16504c2.91016 -22.96 20.6602 -41.3203 42.9102 -47.6699l50.0703 -14.2998c3.51758 -1.01465 6.09375 -4.25879 6.09375 -8.10059c0 -4.64746 -3.76855 -8.4209 -8.41406 -8.42969h-32.7803
c-0.0214844 0 -0.0625 0.0126953 -0.0849609 0.0126953c-3.62891 0 -7.07422 0.790039 -10.1748 2.20703c-4.7998 2.24023 -10.3701 1.74023 -14.1094 -2l-17.5205 -17.5195c-5.26953 -5.27051 -4.66992 -14.2705 1.5498 -18.3799
c9.29199 -6.08301 20.2031 -10.1514 31.7803 -11.46v-17.7305c0 -8.83105 7.16895 -16 16 -16h16c8.83105 0 16 7.16895 16 16v17.5596z" />
    <glyph glyph-name="comment-dollar-secondary" unicode="&#x10f651;" 
d="M256 416c141.38 0 256 -93.1201 256 -208s-114.62 -208 -256 -208c-0.161133 0 -0.446289 0.107422 -0.606445 0.107422c-37.5674 0 -73.5547 6.81445 -106.794 19.2725c-24.5996 -19.6299 -74.3398 -51.3799 -140.6 -51.3799
c-4.41113 0.00488281 -7.99023 3.58984 -7.99023 8.00195c0 2.12891 0.833008 4.06445 2.19043 5.49805c0.5 0.5 42.2598 45.4502 54.7998 95.7598c-35.5898 35.7402 -57 81.1807 -57 130.74c0 114.88 114.62 208 256 208zM280 113.56
c27.9756 3.24902 49.7812 26.9951 49.7812 55.8369c0 2.4502 -0.15625 4.86523 -0.460938 7.2334c-2.91016 22.96 -20.6602 41.3105 -42.9102 47.6699l-50.0703 14.2998c-3.51758 1.01465 -6.09375 4.25879 -6.09375 8.10059c0 4.64746 3.76855 8.4209 8.41406 8.42969
h32.7803c0.0205078 0 0.0605469 -0.0126953 0.0810547 -0.0126953c3.62988 0 7.07715 -0.790039 10.1787 -2.20703c4.7998 -2.24023 10.3701 -1.74023 14.1094 2l17.5205 17.5195c5.26953 5.27051 4.66992 14.2705 -1.5498 18.3799
c-9.29199 6.08301 -20.2031 10.1514 -31.7803 11.46v17.7305c0 8.83105 -7.16895 16 -16 16h-16c-8.83105 0 -16 -7.16895 -16 -16v-17.6299c-27.9717 -3.25293 -49.7725 -26.9971 -49.7725 -55.835c0 -2.42773 0.15332 -4.81836 0.452148 -7.16504
c2.91016 -22.96 20.6602 -41.3203 42.9102 -47.6699l50.0703 -14.2998c3.51758 -1.01465 6.09375 -4.25879 6.09375 -8.10059c0 -4.64746 -3.76855 -8.4209 -8.41406 -8.42969h-32.7803c-0.0214844 0 -0.0625 0.0126953 -0.0849609 0.0126953
c-3.62891 0 -7.07422 0.790039 -10.1748 2.20703c-4.7998 2.24023 -10.3701 1.74023 -14.1094 -2l-17.5205 -17.5195c-5.26953 -5.27051 -4.66992 -14.2705 1.5498 -18.3799c9.29199 -6.08301 20.2031 -10.1514 31.7803 -11.46v-17.7305c0 -8.83105 7.16895 -16 16 -16h16
c8.83105 0 16 7.16895 16 16v17.5596z" />
    <glyph glyph-name="comments-alt-dollar-secondary" unicode="&#x10f652;" horiz-adv-x="576" 
d="M416 224c0 -35.3223 -28.6777 -64 -64 -64h-189.67l-82.79 -62.0703c-1.61816 -1.19434 -3.62695 -1.90527 -5.79004 -1.90527c-5.37988 0 -9.74707 4.36621 -9.75 9.74512v54.2305c-35.3223 0 -64 28.6777 -64 64v160c0 35.3223 28.6777 64 64 64h288
c35.3223 0 64 -28.6777 64 -64v-160zM224 224.12c23.6201 0.629883 42.6699 20.54 42.6699 45.0703c0 19.9697 -12.9902 37.8096 -31.5801 43.3896l-45 13.5c-5.16016 1.54004 -8.76953 6.72949 -8.76953 12.7295c0 7.27051 5.2998 13.1904 11.7998 13.1904h28.1104
c4.70312 -0.00585938 9.11719 -1.38281 12.8193 -3.73047c1.31152 -0.886719 2.90332 -1.40918 4.60449 -1.40918c2.12695 0 4.06641 0.810547 5.52539 2.13965l11.75 11.2197c1.55078 1.45996 2.52344 3.52734 2.52344 5.82324
c0 2.56641 -1.21094 4.85254 -3.09277 6.31738c-8.80957 6.60156 -19.6729 10.751 -31.3701 11.3496v16.29c0 4.41504 -3.58496 8 -8 8h-16c-4.41602 0 -8 -3.58496 -8 -8v-16.1201c-23.6201 -0.629883 -42.6699 -20.5498 -42.6699 -45.0703
c0 -19.9697 12.9893 -37.8096 31.5801 -43.3896l45 -13.5c5.15918 -1.54004 8.76953 -6.78027 8.76953 -12.7295c0 -7.27051 -5.2998 -13.1904 -11.7998 -13.1904h-28.1104c-4.70117 0.0107422 -9.11523 1.38672 -12.8193 3.73047
c-1.31152 0.886719 -2.9043 1.40918 -4.60449 1.40918c-2.12793 0 -4.06738 -0.810547 -5.52637 -2.13965l-11.75 -11.2197c-1.55078 -1.45996 -2.52344 -3.52734 -2.52344 -5.82324c0 -2.56641 1.21191 -4.85254 3.09375 -6.31738
c8.81152 -6.59766 19.6748 -10.7461 31.3701 -11.3496v-16.29c0 -4.41504 3.58496 -8 8 -8h16c4.41504 0 8 3.58496 8 8v16.1201z" />
    <glyph glyph-name="comments-dollar-secondary" unicode="&#x10f653;" horiz-adv-x="576" 
d="M415.5 256c0 -88.3701 -93.1201 -160 -208 -160c-40.9805 0 -79.0703 9.25977 -111.27 25c-21.8008 -12.75 -52.1504 -25 -88.7305 -25c-4.41113 0.00488281 -7.99023 3.58984 -7.99023 8.00195c0 2.12891 0.833008 4.06445 2.19043 5.49805
c0.299805 0.339844 22.4102 24.2803 35.7998 54.5c-23.8701 26.0498 -38 57.7305 -38 92c0 88.3701 93.1201 160 208 160s208 -71.6299 208 -160zM191.5 160c0 -4.41504 3.58496 -8 8 -8h16c4.41504 0 8 3.58496 8 8v16.1201
c23.6201 0.629883 42.6699 20.54 42.6699 45.0703c0 19.9697 -12.9902 37.8096 -31.5801 43.3896l-45 13.5c-5.16016 1.54004 -8.76953 6.78027 -8.76953 12.7295c0 7.27051 5.2998 13.1904 11.7998 13.1904h28.1104c4.70312 -0.00585938 9.11719 -1.38281 12.8193 -3.73047
c1.31152 -0.886719 2.90332 -1.40918 4.60449 -1.40918c2.12695 0 4.06641 0.810547 5.52539 2.13965l11.75 11.2197c1.55078 1.45996 2.52344 3.52734 2.52344 5.82324c0 2.56641 -1.21094 4.85254 -3.09277 6.31738c-8.80957 6.60156 -19.6729 10.751 -31.3701 11.3496
v16.29c0 4.41504 -3.58496 8 -8 8h-16c-4.41602 0 -8 -3.58496 -8 -8v-16.1201c-23.6201 -0.629883 -42.6699 -20.5498 -42.6699 -45.0703c0 -19.9697 12.9893 -37.8096 31.5801 -43.3896l45 -13.5c5.15918 -1.54004 8.76953 -6.78027 8.76953 -12.7295
c0 -7.27051 -5.2998 -13.1904 -11.7998 -13.1904h-28.1104c-4.70117 0.0107422 -9.11523 1.38672 -12.8193 3.73047c-1.31152 0.886719 -2.9043 1.40918 -4.60449 1.40918c-2.12793 0 -4.06738 -0.810547 -5.52637 -2.13965l-11.75 -11.2197
c-1.55078 -1.45996 -2.52344 -3.52734 -2.52344 -5.82324c0 -2.56641 1.21191 -4.85254 3.09375 -6.31738c8.81152 -6.59766 19.6748 -10.7461 31.3701 -11.3496v-16.29z" />
    <glyph glyph-name="dharmachakra-secondary" unicode="&#x10f655;" 
d="M162.5 170.16l-64.4209 -4c-1.37109 8.47363 -2.08398 17.166 -2.08398 26.0244s0.712891 17.2422 2.08398 25.7158l64.4199 -4c-0.399414 -1.7002 -0.75293 -3.42676 -1.05957 -5.17969l-0.0908203 -0.599609c-0.109375 -0.639648 -0.219727 -1.29004 -0.30957 -1.9502
l-0.120117 -0.820312c-0.0800781 -0.580078 -0.160156 -1.16992 -0.229492 -1.75c0 -0.30957 -0.0703125 -0.619141 -0.100586 -0.929688c-0.0703125 -0.55957 -0.120117 -1.12012 -0.169922 -1.67969l-0.0898438 -1
c-0.0498047 -0.560547 -0.0800781 -1.12988 -0.120117 -1.69043l-0.0595703 -1c0 -0.599609 -0.0605469 -1.2002 -0.0800781 -1.80957v-7c0 -0.610352 0.0498047 -1.20996 0.0800781 -1.81055l0.0595703 -1c0 -0.55957 0.0703125 -1.12988 0.120117 -1.68945l0.0898438 -1
c0.0498047 -0.560547 0.0996094 -1.12012 0.169922 -1.68066c0 -0.30957 0.0703125 -0.619141 0.100586 -0.929688c0.0693359 -0.580078 0.149414 -1.16992 0.229492 -1.75l0.120117 -0.820312c0.0898438 -0.65918 0.200195 -1.30957 0.30957 -1.94922l0.0908203 -0.600586
c0.313477 -1.7002 0.666992 -3.40039 1.06055 -5.10059zM174.449 242.66l-48.4502 42.7197c10.2217 14.1768 22.4502 26.4023 36.6299 36.6201l42.7002 -48.4697c-8.64746 -5.38574 -16.2539 -11.9824 -22.79 -19.7402
c-2.96289 -3.51953 -5.64648 -7.20898 -8.08984 -11.1299zM255.999 352c0.0253906 0 -0.106445 0.00390625 -0.0810547 0.00390625c8.86035 0 17.5557 -0.712891 26.0312 -2.08398l-4 -64.4199c-1.7002 0.400391 -3.43066 0.75 -5.16992 1.0498l-0.620117 0.110352
c-0.640625 0.109375 -1.28027 0.209961 -1.92969 0.299805l-0.84082 0.120117l-1.73926 0.229492l-0.94043 0.100586c-0.549805 0.0703125 -1.11035 0.120117 -1.66992 0.169922l-1 0.0898438c-0.55957 0.0498047 -1.12988 0.120117 -1.69043 0.120117l-1 0.0595703
l-1.80957 0.0800781h-7l-1.80957 -0.0800781l-1 -0.0595703c-0.560547 -0.0400391 -1.13086 -0.0703125 -1.69043 -0.120117l-1 -0.0898438c-0.55957 -0.0498047 -1.12012 -0.0996094 -1.66992 -0.169922l-0.94043 -0.100586l-1.73926 -0.229492l-0.84082 -0.120117
c-0.649414 -0.0898438 -1.29004 -0.19043 -1.92969 -0.299805l-0.620117 -0.110352c-1.74023 -0.299805 -3.46973 -0.649414 -5.16992 -1.0498l-4 64.4199c8.47363 1.37109 17.0117 2.08008 25.8701 2.08008zM281.869 34.0801h-0.100586
c-8.47461 -1.37109 -16.8594 -2.08398 -25.7197 -2.08398c-8.85938 0 -17.5547 0.712891 -26.0303 2.08398l4 64.4199c1.71387 -0.399414 3.44043 -0.75293 5.18066 -1.05957l0.580078 -0.0908203c0.679688 -0.109375 1.33984 -0.219727 2 -0.30957l0.799805 -0.120117
l1.76953 -0.229492l0.919922 -0.100586l1.69043 -0.169922l1 -0.0898438c0.55957 -0.0498047 1.12988 -0.120117 1.69043 -0.120117l1 -0.0595703l1.80957 -0.0800781h7l1.80957 0.0800781l1 0.0595703c0.560547 0.0400391 1.13086 0.0703125 1.69043 0.120117l1 0.0898438
l1.67969 0.169922l0.930664 0.100586l1.73926 0.229492l0.84082 0.120117c0.649414 0.0898438 1.29004 0.19043 1.92969 0.299805l0.620117 0.110352c1.74023 0.299805 3.46973 0.649414 5.16992 1.0498zM350.559 208.66
c-0.306641 1.75293 -0.660156 3.45996 -1.05957 5.12012l64.4199 4c1.37109 -8.47363 2.08398 -16.8574 2.08398 -25.7158s-0.712891 -17.5508 -2.08398 -26.0244l-64.4199 4c0.209961 0.870117 0.400391 1.75 0.580078 2.63965
c0.169922 0.839844 0.330078 1.68066 0.469727 2.52051c0.0400391 0.209961 0.110352 0.429688 0.110352 0.639648c0.109375 0.629883 0.209961 1.27051 0.299805 1.91016c0.0498047 0.280273 0.120117 0.570312 0.120117 0.849609
c0.0800781 0.570312 0.160156 1.15039 0.229492 1.73047c0.0302734 0.30957 0.100586 0.620117 0.100586 0.939453c0.0703125 0.550781 0.120117 1.11035 0.169922 1.6709l0.0898438 1c0.0498047 0.55957 0.120117 1.11914 0.120117 1.67969l0.0595703 1
c0.0302734 0.610352 0.0800781 1.20996 0.0800781 1.80957v7c-0.0195312 0.610352 -0.0800781 1.20996 -0.0800781 1.81055l-0.0595703 1c-0.0400391 0.55957 -0.0703125 1.12988 -0.120117 1.68945l-0.0898438 1c-0.0498047 0.560547 -0.0996094 1.12012 -0.169922 1.68066
c-0.0302734 0.30957 -0.100586 0.620117 -0.100586 0.929688c-0.0693359 0.580078 -0.149414 1.16992 -0.229492 1.75l-0.120117 0.820312c-0.0898438 0.65918 -0.200195 1.30957 -0.30957 1.94922zM434.089 327.86c-12.2158 15.9912 -26.2451 30.0166 -42.2402 42.2295
l11.2803 12.7803c2.93262 3.32422 7.22363 5.41699 12 5.41699c4.41504 0 8.41406 -1.79199 11.3105 -4.6875l21.1592 -21.1592c2.89551 -2.89648 4.69238 -6.89551 4.69238 -11.3096c0 -4.77734 -2.09766 -9.06836 -5.42188 -12.001zM205.329 110.46l-42.71 -48.46
c-7.08887 5.12305 -13.627 10.6924 -19.7998 16.8604c-6.1582 6.15918 -11.7148 12.6875 -16.8203 19.7695l48.4502 42.71c7.82812 -12.5723 18.3076 -23.0518 30.8799 -30.8799zM337.559 141.35l48.4404 -42.7197c-5.11719 -7.09668 -10.6865 -13.6387 -16.8604 -19.8096
c-6.16113 -6.15234 -12.6855 -11.708 -19.7598 -16.8203l-42.71 48.4502c3.92969 2.44043 7.62207 5.12695 11.1396 8.09961c7.76074 6.54004 14.3613 14.1494 19.75 22.7998zM31.999 192c0.00488281 -10.2285 0.679688 -20.0693 2 -29.9404l-17 -1.05957
c-0.334961 -0.0205078 -0.65918 -0.0322266 -1 -0.0322266c-8.83105 0 -16 7.16992 -16 16v0.0322266v30c0.015625 8.81738 7.16602 15.9717 15.9863 15.9717c0.34082 0 0.678711 -0.0107422 1.01367 -0.03125l17 -1.06055c-1.31738 -9.85156 -1.99316 -19.6719 -2 -29.8799
zM446.879 44.8799c3.32422 -2.93262 5.41699 -7.22266 5.41699 -12c0 -4.41406 -1.79199 -8.41406 -4.68652 -11.3096l-21.1699 -21.1699c-2.89648 -2.89551 -6.89551 -4.69238 -11.3096 -4.69238c-4.77734 0 -9.06836 2.09766 -12.001 5.42188l-11.2695 12.7803
c15.9951 12.2197 30.0244 26.252 42.2393 42.25zM494.999 222.94c0.334961 0.0205078 0.65918 0.0302734 1 0.0302734c8.82129 0 15.9844 -7.15332 16 -15.9707v-29.9404c0 -0.00976562 0.0136719 -0.0205078 0.0136719 -0.03125c0 -8.83105 -7.16992 -16 -16 -16
c-0.34082 0 -0.678711 0.0107422 -1.01367 0.03125l-17 1.06055c1.31836 9.85059 1.99805 19.4395 1.99805 29.6484s-0.679688 20.2607 -1.99805 30.1113zM285.879 -30l1.12012 -17c0.0205078 -0.334961 0.0322266 -0.65918 0.0322266 -1c0 -8.83105 -7.16992 -16 -16 -16
h-0.0322266h-29.9404c-0.00976562 0 -0.0205078 -0.0136719 -0.03125 -0.0136719c-8.83105 0 -16 7.16992 -16 16c0 0.34082 0.0107422 0.678711 0.03125 1.01367l1.06055 17c9.85059 -1.31836 19.4395 -1.99805 29.6484 -1.99805s20.2607 0.679688 30.1113 1.99805z
M349.369 322c14.1797 -10.2178 26.4082 -22.4434 36.6299 -36.6201l-48.4502 -42.6699c-2.44434 3.92383 -5.12988 7.6123 -8.09961 11.1299c-6.5332 7.76367 -14.1406 14.3643 -22.79 19.75zM226.119 414l-1.12012 17c-0.0205078 0.334961 -0.0322266 0.65918 -0.0322266 1
c0 8.83105 7.16992 16 16 16h0.0322266h30c8.81738 -0.015625 15.9717 -7.16602 15.9717 -15.9863c0 -0.34082 -0.0107422 -0.678711 -0.03125 -1.01367l-1.06055 -17c-9.85059 1.31836 -19.4395 1.99805 -29.6484 1.99805s-20.2607 -0.679688 -30.1113 -1.99805z
M65.1191 339.12c-3.32422 2.93262 -5.40723 7.2334 -5.40723 12.0098c0 4.41504 1.79199 8.41406 4.6875 11.3105l21.1699 21.1592c2.89551 2.89551 6.89453 4.69238 11.3086 4.69238c4.77734 0 9.06836 -2.09766 12.001 -5.42188l11.2705 -12.7705
c-15.9951 -12.2236 -30.0264 -26.2549 -42.25 -42.25zM77.8887 56.1201c12.2217 -15.9961 26.2646 -29.998 42.2607 -42.2197l-11.2705 -12.7705c-2.93262 -3.32422 -7.22266 -5.41699 -12 -5.41699c-4.41406 0 -8.41406 1.79199 -11.3096 4.6875l-21.1699 21.1699
c-2.89551 2.89551 -4.69238 6.89453 -4.69238 11.3086c0 4.77734 2.09766 9.06836 5.42188 12.001z" />
    <glyph glyph-name="empty-set-secondary" unicode="&#x10f656;" 
d="M76.5996 57.8496c-27.9365 37.249 -44.4941 83.5127 -44.4941 133.613c0 0.119141 -0.105469 0.417969 -0.105469 0.537109c0 123.71 100.29 224 224 224h0.356445c50.1006 0 96.5449 -16.6631 133.794 -44.5996l-57.46 -57.46
c-22.1689 13.9238 -48.3906 21.9795 -76.4785 21.9795c-79.5137 0 -144.069 -64.5557 -144.069 -144.07c0 -28.0879 7.99316 -54.3711 21.917 -76.54zM377.94 268.68l57.46 57.4707c27.9365 -37.249 44.5996 -83.6934 44.5996 -133.794v-0.356445
c0 -123.71 -100.29 -224 -224 -224c-0.120117 0 -0.419922 0.105469 -0.540039 0.105469c-50.0947 0 -96.3535 16.5537 -133.6 44.4844l57.46 57.4697c22.1631 -13.9141 48.4355 -21.9004 76.5127 -21.9004c79.5146 0 144.069 64.5557 144.069 144.07
c0 28.0762 -8.04785 54.2871 -21.9619 76.4502z" />
    <glyph glyph-name="folder-minus-secondary" unicode="&#x10f65d;" 
d="M464 320c26.4922 0 48 -21.5078 48 -48v-224c0 -26.4922 -21.5078 -48 -48 -48h-416c-26.4922 0 -48 21.5078 -48 48v288c0 26.4922 21.5078 48 48 48h160l64 -64h192zM368 152v16c0 8.83105 -7.16895 16 -16 16h-192c-8.83105 0 -16 -7.16895 -16 -16v-16
c0 -8.83105 7.16895 -16 16 -16h192c8.83105 0 16 7.16895 16 16z" />
    <glyph glyph-name="folder-times-secondary" unicode="&#x10f65f;" 
d="M464 320c26.4922 0 48 -21.5078 48 -48v-224c0 -26.4922 -21.5078 -48 -48 -48h-416c-26.4922 0 -48 21.5078 -48 48v288c0 26.4922 21.5078 48 48 48h160l64 -64h192zM340.85 109.09l-50.9092 50.9102l50.9092 50.9102c2.89746 2.89648 4.69043 6.90137 4.69043 11.3174
s-1.79297 8.41602 -4.69043 11.3125l-11.3096 11.3096c-2.89648 2.89746 -6.90137 4.69043 -11.3174 4.69043s-8.41602 -1.79297 -11.3125 -4.69043l-50.9102 -50.9092l-50.9102 50.9092c-2.89648 2.89746 -6.90137 4.69043 -11.3174 4.69043
s-8.41602 -1.79297 -11.3125 -4.69043l-11.3096 -11.3096c-2.89746 -2.89648 -4.69043 -6.90137 -4.69043 -11.3174s1.79297 -8.41602 4.69043 -11.3125l50.9092 -50.9102l-50.9092 -50.9102c-2.89746 -2.89648 -4.69043 -6.90137 -4.69043 -11.3174
s1.79297 -8.41602 4.69043 -11.3125l11.3096 -11.3096c2.89648 -2.89746 6.90137 -4.69043 11.3174 -4.69043s8.41602 1.79297 11.3125 4.69043l50.9102 50.9092l50.9102 -50.9092c2.89648 -2.89746 6.90137 -4.69043 11.3174 -4.69043s8.41602 1.79297 11.3125 4.69043
l11.3096 11.3096c2.89746 2.89648 4.69043 6.90137 4.69043 11.3174s-1.79297 8.41602 -4.69043 11.3125z" />
    <glyph glyph-name="folders-secondary" unicode="&#x10f660;" horiz-adv-x="640" 
d="M640 336v-224c0 -26.4922 -21.5078 -48 -48 -48h-416c-26.4922 0 -48 21.5078 -48 48v288c0 26.4922 21.5078 48 48 48h160l64 -64h192c26.4922 0 48 -21.5078 48 -48z" />
    <glyph glyph-name="function-secondary" unicode="&#x10f661;" horiz-adv-x="640" 
d="M334.59 295.09c6.60059 -5.59961 7.32031 -15.2002 2.15039 -22.1094c-30.083 -40.4287 -47.8936 -90.9346 -47.8936 -145.153c0 -54.2178 17.8105 -104.309 47.8936 -144.737c5.16016 -6.93945 4.43945 -16.5303 -2.15039 -22.1396l-24.6895 -21
c-7 -5.9502 -17.8203 -5.08984 -23.3809 2.22949c-39.1416 51.5908 -62.3789 116.4 -62.3789 186.092s23.2373 133.998 62.3789 185.589c5.55078 7.31934 16.3809 8.22949 23.3809 2.22949zM577.48 313.84c39.1416 -51.5918 62.3779 -116.434 62.3779 -186.126
c0 -69.6934 -23.2363 -134.001 -62.3779 -185.594c-5.55078 -7.32031 -16.3809 -8.17969 -23.3809 -2.23047l-24.6895 21c-6.60059 5.60059 -7.32031 15.2002 -2.15039 22.1406c30.083 40.4307 47.8916 90.9375 47.8916 145.157s-17.8086 104.312 -47.8916 144.742
c-5.16016 6.94043 -4.43945 16.5303 2.15039 22.1406l24.6895 21c7 5.94922 17.8203 5.08984 23.3809 -2.23047z" />
    <glyph glyph-name="funnel-dollar-secondary" unicode="&#x10f662;" horiz-adv-x="640" 
d="M480 256c88.3066 0 160 -71.6934 160 -160s-71.6934 -160 -160 -160s-160 71.6934 -160 160s71.6934 160 160 160zM496 16.1201c23.6299 0.629883 42.6699 20.54 42.6699 45.0703c0 19.9697 -12.9902 37.8096 -31.5801 43.3896l-45 13.5
c-5.16016 1.54004 -8.76953 6.78027 -8.76953 12.7295c0 7.27051 5.2998 13.1904 11.7998 13.1904h28.1104c4.70312 -0.00585938 9.11719 -1.38281 12.8193 -3.73047c1.31152 -0.886719 2.90332 -1.40918 4.60449 -1.40918c2.12695 0 4.06641 0.810547 5.52539 2.13965
l11.75 11.2197c1.55078 1.45996 2.52344 3.52734 2.52344 5.82324c0 2.56641 -1.21094 4.85254 -3.09277 6.31738c-8.80957 6.60156 -19.6729 10.751 -31.3701 11.3496v16.29c0 4.41504 -3.58496 8 -8 8h-16c-4.41602 0 -8 -3.58496 -8 -8v-16.1201
c-23.6201 -0.629883 -42.6699 -20.5498 -42.6699 -45.0703c0 -19.9697 12.9893 -37.8096 31.5801 -43.3896l45 -13.5c5.15918 -1.54004 8.76953 -6.78027 8.76953 -12.7295c0 -7.27051 -5.2998 -13.1904 -11.7998 -13.1904h-28.1104
c-4.70117 0.0107422 -9.11523 1.38672 -12.8193 3.73047c-1.31152 0.886719 -2.9043 1.40918 -4.60449 1.40918c-2.12793 0 -4.06738 -0.810547 -5.52637 -2.13965l-11.75 -11.2197c-1.55078 -1.45996 -2.52344 -3.52734 -2.52344 -5.82324
c0 -2.56641 1.21191 -4.85254 3.09375 -6.31738c8.81152 -6.59766 19.6748 -10.7461 31.3701 -11.3496v-16.29c0 -4.41504 3.58496 -8 8 -8h16c4.41504 0 8 3.58496 8 8v16.1201z" />
    </font>
</defs>
</svg>
